<?xml version="1.0" encoding="UTF-8"?>
<svg xmlns="http://www.w3.org/2000/svg" xmlns:xlink="http://www.w3.org/1999/xlink" version="1.2" >
<font id="Stelvio Grotesk Medium">
<font-face  font-family="Stelvio Grotesk" units-per-em="1000" ascent="630" descent="-370" font-style="normal" font-weight="500" font-stretch="normal" cap-height="630" x-height="434" underline-position="-50" underline-thickness="40" />
<missing-glyph  horiz-adv-x="608" d="" />
<glyph glyph-name="uni0000" d="" />
<glyph glyph-name="uni000D" unicode="&#xd;" horiz-adv-x="306" d="" />
<glyph glyph-name="uni0020" unicode="&#x20;" horiz-adv-x="180" d="" />
<glyph glyph-name="uni0021" unicode="&#x21;" horiz-adv-x="184" d="M38 123 L38 0 L146 0 L146 123 L38 123 Z M71 166 L46 425 L46 630 L140 630 L140 427 L114 166 L71 166 Z " />
<glyph glyph-name="uni0022" unicode="&#x22;" horiz-adv-x="281" d="M243 630 L243 407 L160 407 L160 630 L243 630 Z M38 407 L122 407 L122 630 L38 630 L38 407 Z " />
<glyph glyph-name="uni0023" unicode="&#x23;" horiz-adv-x="600" d="M564 387 L580 464 L476 464 L518 630 L432 630 L391 464 L258 464 L300 630 L214 630 L173 464 L75 464 L62 387 L153 387 L117 243 L36 243 L20 165 L98 165 L57 0 L143 0 L183 165 L316 165 L275 0 L361 0 L402 165 L523 165 L539 243 L421 243 L457 387 L564 387 Z M371 387 L335 243 L203 243 L239 387 L371 387 Z " />
<glyph glyph-name="uni0024" unicode="&#x24;" horiz-adv-x="581" d="M551 170 Q551 89 489 40.5 Q427 -8 318 -12 L318 -102 L254 -102 L254 -10 Q159 1 97 53 Q35 105 22 186 L107 206 Q114 161 151 121 Q188 81 254 69 L254 282 L212 290 Q37 323 37 458 Q37 539 95 587.5 Q153 636 254 641 L254 731 L318 731 L318 640 Q415 634 464 595 Q513 556 534 471 L449 451 Q427 550 318 563 L318 358 L365 350 Q406 342 440 330.5 Q474 319 499 299 Q524 279 537.5 248 Q551 217 551 170 Z M251 371 L254 370 L254 564 Q194 559 160 532 Q126 505 126 463 Q126 439 140 423 Q154 407 174 396 Q194 385 215.5 379.5 Q237 374 251 371 Z M318 66 Q380 70 421 98.5 Q462 127 462 166 Q462 208 432 231.5 Q402 255 337 267 L318 271 L318 66 Z " />
<glyph glyph-name="uni0025" unicode="&#x25;" horiz-adv-x="779" d="M598 630 L261 -1 L176 -1 L514 630 L598 630 Z M188 296 Q115 296 69.5 344 Q24 392 24 469 Q24 545 69.5 593.5 Q115 642 188 642 Q261 642 307 593.5 Q353 545 353 469 Q353 392 307 344 Q261 296 188 296 Z M108 469 Q108 353 188 353 Q196 353 209.5 355 Q223 357 236.5 367.5 Q250 378 260 402 Q270 426 270 469 Q270 512 260 535.5 Q250 559 236.5 569.5 Q223 580 209.5 582 Q196 584 188 584 Q108 584 108 469 Z M754 161 Q754 84 708 36 Q662 -12 589 -12 Q516 -12 470.5 36 Q425 84 425 161 Q425 237 470.5 285 Q516 333 589 333 Q662 333 708 285 Q754 237 754 161 Z M508 161 Q508 45 589 45 Q597 45 610.5 47 Q624 49 637 59.5 Q650 70 660 94 Q670 118 670 161 Q670 204 660 227.5 Q650 251 637 261.5 Q624 272 610.5 274 Q597 276 589 276 Q508 276 508 161 Z " />
<glyph glyph-name="uni0026" unicode="&#x26;" horiz-adv-x="647" d="M623 78 L642 84 L642 13 Q620 1 600 -3.5 Q580 -8 556 -8 Q494 -3 435 54 Q392 22 341.5 5 Q291 -12 240 -12 Q191 -12 150.5 1 Q110 14 81 38 Q52 62 36 95 Q20 128 20 167 Q20 200 32 226 Q44 252 63.5 272.5 Q83 293 107.5 309.5 Q132 326 158 340 Q133 369 111.5 403 Q90 437 90 479 Q90 551 141 596.5 Q192 642 273 642 Q351 642 397 601.5 Q443 561 443 494 Q443 463 431 437.5 Q419 412 399 391 Q379 370 352 353 Q325 336 296 321 L441 171 Q458 194 475.5 225.5 Q493 257 510 305 L597 311 Q583 257 557.5 206.5 Q532 156 499 115 Q520 93 540.5 82 Q561 71 585 71 Q594 71 603 73 Q612 75 623 78 Z M188 481 Q188 454 199.5 430 Q211 406 237 381 Q271 395 292 407 Q313 419 325 432.5 Q337 446 341 460.5 Q345 475 345 493 Q345 505 342.5 517.5 Q340 530 332.5 539.5 Q325 549 310.5 555.5 Q296 562 273 562 Q239 562 213.5 544 Q188 526 188 481 Z M212 283 Q164 259 141 235.5 Q118 212 118 168 Q118 123 148.5 95.5 Q179 68 236 68 Q282 68 318 81 Q354 94 380 111 L212 283 Z " />
<glyph glyph-name="uni0027" unicode="&#x27;" horiz-adv-x="160" d="M38 407 L122 407 L122 630 L38 630 L38 407 Z " />
<glyph glyph-name="uni0028" unicode="&#x28;" horiz-adv-x="289" d="M271 -84 L176 -84 Q113 -11 78 86 Q43 183 43 286 Q43 389 78 486.5 Q113 584 176 657 L271 657 L264 649 Q196 571 164 483 Q132 395 132 286 Q132 177 164 89 Q196 1 264 -76 L271 -84 Z " />
<glyph glyph-name="uni0029" unicode="&#x29;" horiz-adv-x="289" d="M18 -84 L25 -76 Q93 1 125 89 Q157 177 157 286 Q157 395 125 483 Q93 571 25 649 L18 657 L113 657 Q176 584 211 486.5 Q246 389 246 286 Q246 183 211 86 Q176 -11 113 -84 L18 -84 Z " />
<glyph glyph-name="uni002A" unicode="&#x2a;" horiz-adv-x="323" d="M310 502 L292 558 L191 523 L191 630 L132 630 L132 522 L32 557 L13 501 L115 468 L53 384 L100 347 L162 434 L224 349 L272 384 L208 469 L310 502 Z " />
<glyph glyph-name="uni002B" unicode="&#x2b;" horiz-adv-x="615" d="M346 570 L346 352 L567 352 L567 275 L346 275 L346 58 L268 58 L268 275 L48 275 L48 352 L268 352 L268 570 L346 570 Z " />
<glyph glyph-name="uni002C" unicode="&#x2c;" horiz-adv-x="172" d="M138 105 L138 16 Q137 -46 115.5 -67.5 Q94 -89 34 -89 L34 -39 L49 -39 Q55 -39 60 -37.5 Q65 -36 72 -28 Q75 -24 77 -19 Q79 -15 80.5 -10 Q82 -5 82 0 L34 0 L34 105 L138 105 Z " />
<glyph glyph-name="uni002D" unicode="&#x2d;" horiz-adv-x="372" d="M322 216 L50 216 L50 284 L322 284 L322 216 Z " />
<glyph glyph-name="uni002E" unicode="&#x2e;" horiz-adv-x="175" d="M35 104 L140 104 L140 0 L35 0 L35 104 Z " />
<glyph glyph-name="uni002F" unicode="&#x2f;" horiz-adv-x="327" d="M236 658 L-20 -84 L71 -84 L326 658 L236 658 Z " />
<glyph glyph-name="uni0030" unicode="0" horiz-adv-x="614" d="M307 642 Q441 642 513 557 Q585 472 585 315 Q585 159 513 73.5 Q441 -12 307 -12 Q173 -12 101 73.5 Q29 159 29 315 Q29 472 101 557 Q173 642 307 642 Z M487 314 Q487 441 443.5 501.5 Q400 562 307 562 Q214 562 170.5 501.5 Q127 441 127 314 Q127 187 170.5 127.5 Q214 68 307 68 Q400 68 443.5 127.5 Q487 187 487 314 Z " />
<glyph glyph-name="uni0031" unicode="1" horiz-adv-x="307" d="M183 630 L241 630 L241 0 L149 0 L149 504 Q140 486 117 476 Q94 466 71 461 Q43 456 11 455 L11 539 Q17 538 27 538 Q85 538 127.5 560.5 Q170 583 183 630 Z " />
<glyph glyph-name="uni0032" unicode="2" horiz-adv-x="503" d="M182 76 L491 76 L491 0 L25 0 L25 54 L203 208 Q238 238 269 266 Q300 294 322.5 322.5 Q345 351 358 381 Q371 411 371 445 Q371 505 339.5 533.5 Q308 562 250 562 Q215 562 188 547 Q161 532 144 507 Q127 482 121 449 Q115 416 122 380 L36 380 Q26 435 36.5 483 Q47 531 75.5 566.5 Q104 602 149.5 622 Q195 642 254 642 Q354 642 411.5 590.5 Q469 539 469 448 Q469 406 453.5 369 Q438 332 412.5 298.5 Q387 265 355 234 Q323 203 289 173 L182 76 Z " />
<glyph glyph-name="uni0033" unicode="3" horiz-adv-x="526" d="M411 324 Q440 312 463 292 Q484 273 499 246 Q514 219 514 178 Q514 124 492.5 87.5 Q471 51 435.5 29 Q400 7 355 -2.5 Q310 -12 263 -12 Q148 -12 87 45.5 Q26 103 25 212 L120 212 Q121 138 154 103 Q187 68 264 68 Q294 68 321.5 71.5 Q349 75 370 86.5 Q391 98 403.5 119.5 Q416 141 416 178 Q415 211 401.5 231 Q388 251 366.5 261.5 Q345 272 318.5 275.5 Q292 279 264 280 Q249 280 236 279 Q223 278 211 276 L212 365 Q235 362 263 362 Q289 362 313.5 366 Q338 370 356.5 380.5 Q375 391 386 410.5 Q397 430 397 461 Q396 492 385 511.5 Q374 531 356 542.5 Q338 554 314 558 Q290 562 263 562 Q193 562 164.5 527.5 Q136 493 134 418 L39 418 Q42 642 264 642 Q315 642 357.5 632.5 Q400 623 430 601 Q460 579 477 545 Q494 511 495 461 Q496 427 483 401.5 Q470 376 454 359 Q435 339 411 324 Z " />
<glyph glyph-name="uni0034" unicode="4" horiz-adv-x="559" d="M452 223 L452 630 L337 630 L17 245 L17 147 L359 147 L359 0 L452 0 L452 147 L549 147 L549 223 L452 223 Z M104 223 L359 530 L359 223 L104 223 Z " />
<glyph glyph-name="uni0035" unicode="5" horiz-adv-x="531" d="M288 432 Q391 432 450 373.5 Q509 315 509 213 Q509 110 444.5 49 Q380 -12 271 -12 Q196 -11 149 13 Q102 37 76 71 Q50 105 40 144.5 Q30 184 29 217 L123 201 Q126 141 168.5 104.5 Q211 68 272 68 Q335 68 374.5 105.5 Q414 143 414 208 Q414 274 374 313 Q334 352 269 352 Q225 352 191 333.5 Q157 315 140 280 L35 297 Q35 297 36.5 311.5 Q38 326 40.5 349.5 Q43 373 46.5 402.5 Q50 432 54 463 Q62 536 72 629 L470 629 L470 553 L153 553 L134 373 Q150 390 172 403 Q192 415 220.5 423.5 Q249 432 288 432 Z " />
<glyph glyph-name="uni0036" unicode="6" horiz-adv-x="543" d="M304 427 Q351 427 390.5 409.5 Q430 392 458.5 362 Q487 332 503 291.5 Q519 251 519 205 Q519 156 501 116 Q483 76 451.5 47.5 Q420 19 378 3.5 Q336 -12 288 -12 Q219 -12 170 15 Q121 42 90 86 Q59 130 44.5 187.5 Q30 245 29 306 Q29 371 42.5 432 Q56 493 87.5 539.5 Q119 586 169.5 614 Q220 642 295 642 Q330 642 363.5 634 Q397 626 426 610.5 Q455 595 477 570.5 Q499 546 511 513 L412 491 Q401 527 369 544.5 Q337 562 300 562 Q258 562 226.5 546 Q195 530 174.5 503.5 Q154 477 144 442 Q134 407 134 368 L134 361 L137 361 Q159 387 200.5 407 Q242 427 304 427 Z M285 68 Q345 68 383 105 Q421 142 421 205 Q421 270 382.5 308 Q344 346 282 346 Q222 346 182.5 308 Q143 270 143 205 Q143 143 184 105.5 Q225 68 285 68 Z " />
<glyph glyph-name="uni0037" unicode="7" horiz-adv-x="516" d="M17 630 L498 630 L498 559 L494 554 Q391 451 338.5 313 Q286 175 286 0 L194 0 Q195 76 208.5 154 Q222 232 246 305 Q270 378 304 442 Q338 506 380 554 L17 554 L17 630 Z " />
<glyph glyph-name="uni0038" unicode="8" horiz-adv-x="549" d="M421 322 Q450 307 474 286 Q495 267 510.5 241 Q526 215 526 179 Q526 128 506 92 Q486 56 451.5 32.5 Q417 9 371.5 -1.5 Q326 -12 274 -12 Q228 -12 183 -2.5 Q138 7 102.5 29 Q67 51 45 87.5 Q23 124 23 179 Q23 215 39.5 241.5 Q56 268 76 286 Q99 307 128 322 Q104 330 86 348 Q68 364 55.5 391 Q43 418 43 462 Q43 508 61.5 542 Q80 576 111.5 598.5 Q143 621 185 631.5 Q227 642 274 642 Q317 642 358.5 632.5 Q400 623 432.5 601.5 Q465 580 485.5 545.5 Q506 511 506 462 Q506 418 493 390.5 Q480 363 464 348 Q445 330 421 322 Z M273 562 Q207 562 172.5 535.5 Q138 509 138 458 Q138 408 174.5 378 Q211 348 276 348 Q340 348 375.5 377.5 Q411 407 411 458 Q411 509 375 535.5 Q339 562 273 562 Z M276 68 Q349 68 390 96 Q431 124 431 174 Q431 225 390 252.5 Q349 280 273 280 Q198 280 158 252.5 Q118 225 118 174 Q118 125 160 96.5 Q202 68 276 68 Z " />
<glyph glyph-name="uni0039" unicode="9" horiz-adv-x="544" d="M240 203 Q193 203 153.5 220.5 Q114 238 85.5 268 Q57 298 41 338.5 Q25 379 25 425 Q25 474 43 514 Q61 554 92.5 582.5 Q124 611 166 626.5 Q208 642 256 642 Q325 642 374 615 Q423 588 454 544 Q485 500 499.5 442.5 Q514 385 515 324 Q515 259 501.5 198 Q488 137 456.5 90.5 Q425 44 374.5 16 Q324 -12 249 -12 Q214 -12 180.5 -4 Q147 4 118 19.5 Q89 35 67 59.5 Q45 84 33 117 L132 139 Q143 103 175 85.5 Q207 68 244 68 Q286 68 317.5 84 Q349 100 369.5 126.5 Q390 153 400 188 Q410 223 410 262 L410 269 L407 269 Q385 243 343.5 223 Q302 203 240 203 Z M259 562 Q199 562 161 525 Q123 488 123 425 Q123 360 161.5 322 Q200 284 262 284 Q322 284 361.5 322 Q401 360 401 425 Q401 487 360 524.5 Q319 562 259 562 Z " />
<glyph glyph-name="uni003A" unicode="&#x3a;" horiz-adv-x="173" d="M34 105 L139 105 L139 0 L34 0 L34 105 Z M34 378 L139 378 L139 273 L34 273 L34 378 Z " />
<glyph glyph-name="uni003B" unicode="&#x3b;" horiz-adv-x="172" d="M138 105 L138 16 Q137 -46 115.5 -67.5 Q94 -89 34 -89 L34 -39 Q48 -39 56.5 -37.5 Q65 -36 72 -28 Q76 -24 79 -17 Q82 -10 82 0 L34 0 L34 105 L138 105 Z M34 273 L34 377 L138 377 L138 273 L34 273 Z " />
<glyph glyph-name="uni003C" unicode="&#x3c;" horiz-adv-x="461" d="M426 152 L126 309 L426 465 L426 557 L35 351 L35 267 L426 61 L426 152 Z " />
<glyph glyph-name="uni003D" unicode="&#x3d;" horiz-adv-x="627" d="M57 275 L570 275 L570 198 L57 198 L57 275 Z M57 459 L57 388 L570 388 L570 459 L57 459 Z " />
<glyph glyph-name="uni003E" unicode="&#x3e;" horiz-adv-x="461" d="M35 152 L335 309 L35 465 L35 557 L426 351 L426 267 L35 61 L35 152 Z " />
<glyph glyph-name="uni003F" unicode="&#x3f;" horiz-adv-x="477" d="M187 105 L292 105 L292 0 L187 0 L187 105 Z M239 642 Q336 642 392 592.5 Q448 543 448 458 Q448 358 354 281 Q327 259 306 229 Q285 199 287 166 L192 166 Q189 194 198 219 Q207 244 222 265.5 Q237 287 255 305 Q273 323 289 338 Q318 364 334.5 391.5 Q351 419 350 456 Q350 514 319.5 538 Q289 562 234 562 Q204 562 180 548.5 Q156 535 141 513.5 Q126 492 119.5 464.5 Q113 437 117 409 L26 409 Q20 456 31 498 Q42 540 70 572 Q131 642 239 642 Z " />
<glyph glyph-name="uni0040" unicode="&#x40;" horiz-adv-x="770" d="M418 554 Q493 554 553.5 534 Q614 514 656.5 476.5 Q699 439 721.5 386 Q744 333 744 266 Q744 220 734.5 177.5 Q725 135 703 102 Q681 69 645 49 Q609 29 557 29 Q518 29 490 44.5 Q462 60 452 88 Q423 64 391.5 48.5 Q360 33 327 33 Q302 33 276.5 43.5 Q251 54 233.5 76 Q216 98 210 132 Q204 166 217 212 Q240 293 287.5 338.5 Q335 384 407 383 Q447 382 469.5 363.5 Q492 345 502 321 L521 375 L597 375 L520 122 Q516 114 521 105 Q526 98 536 93.5 Q546 89 557 89 Q577 89 596.5 99.5 Q616 110 631 132 Q646 154 655.5 187.5 Q665 221 665 266 Q665 316 647.5 356.5 Q630 397 597.5 425.5 Q565 454 519.5 470 Q474 486 418 486 Q350 486 293 463.5 Q236 441 195 400.5 Q154 360 131 304.5 Q108 249 108 183 Q108 128 128.5 81 Q149 34 186 0 Q223 -34 274.5 -53 Q326 -72 387 -72 Q490 -72 595 -23 L623 -83 Q523 -140 386 -140 Q304 -140 237.5 -117.5 Q171 -95 125 -52.5 Q79 -10 54 50 Q29 110 29 185 Q29 268 57 336 Q85 404 136 452.5 Q187 501 259 527.5 Q331 554 418 554 Z M343 100 Q387 100 420.5 130 Q454 160 469 212 Q485 268 465 295 Q448 315 413 315 Q389 315 369.5 305.5 Q350 296 335.5 280 Q321 264 310.5 244 Q300 224 294 204 Q286 176 287 154 Q288 132 299 119 Q312 100 343 100 Z " />
<glyph glyph-name="uni0041" unicode="A" horiz-adv-x="623" d="M518 0 L617 0 L365 630 L258 630 L6 0 L105 0 L170 175 L453 175 L518 0 Z M198 248 L309 548 L313 548 L425 248 L198 248 Z " />
<glyph glyph-name="uni0042" unicode="B" horiz-adv-x="585" d="M324 630 Q433 630 484.5 586 Q536 542 536 470 Q536 364 432 326 Q489 313 519.5 272.5 Q550 232 550 174 Q550 94 495.5 47 Q441 0 341 0 L55 0 L55 630 L324 630 Z M147 367 L325 367 Q386 367 411.5 391 Q437 415 437 457 Q437 499 411.5 521.5 Q386 544 328 544 L147 544 L147 367 Z M147 76 L315 76 Q386 76 419 104 Q452 132 452 186 Q452 237 417.5 266 Q383 295 304 295 L147 295 L147 76 Z " />
<glyph glyph-name="uni0043" unicode="C" horiz-adv-x="663" d="M339 68 Q416 68 467.5 107.5 Q519 147 541 217 L632 193 Q606 99 530.5 43.5 Q455 -12 348 -12 Q288 -12 230 9 Q172 30 126.5 71.5 Q81 113 53 174 Q25 235 25 315 Q25 396 52.5 457.5 Q80 519 126 560 Q172 601 230 621.5 Q288 642 348 642 Q455 642 530.5 587 Q606 532 632 438 L541 414 Q520 485 468 523.5 Q416 562 339 562 Q237 562 180 496.5 Q123 431 123 316 Q123 201 180 134.5 Q237 68 339 68 Z " />
<glyph glyph-name="uni0044" unicode="D" horiz-adv-x="639" d="M55 630 L286 630 Q360 630 420 608.5 Q480 587 522 546.5 Q564 506 586.5 447.5 Q609 389 609 315 Q609 241 586.5 182.5 Q564 124 522 83.5 Q480 43 420 21.5 Q360 0 286 0 L55 0 L55 630 Z M147 77 L284 78 Q395 79 453 140 Q511 201 511 316 Q511 431 453 493 Q395 555 284 555 L147 555 L147 77 Z " />
<glyph glyph-name="uni0045" unicode="E" horiz-adv-x="539" d="M147 76 L147 283 L453 283 L453 359 L147 359 L147 554 L495 554 L495 630 L55 630 L55 0 L506 0 L506 76 L147 76 Z " />
<glyph glyph-name="uni0046" unicode="F" horiz-adv-x="513" d="M147 270 L446 270 L446 271 L446 346 L147 346 L147 554 L488 554 L488 630 L55 630 L55 0 L147 0 L147 270 Z " />
<glyph glyph-name="uni0047" unicode="G" horiz-adv-x="675" d="M318 236 L318 317 L617 317 L617 0 L540 0 L537 98 Q515 67 486 43 Q458 21 421.5 4.5 Q385 -12 335 -12 Q265 -12 208 13.5 Q151 39 110.5 83 Q70 127 48 186.5 Q26 246 26 314 Q26 382 48 442 Q70 502 110.5 546.5 Q151 591 208 616.5 Q265 642 335 642 Q441 642 516 586.5 Q591 531 620 428 L529 406 Q509 475 461 518.5 Q413 562 341 562 Q285 562 244 542.5 Q203 523 176.5 489.5 Q150 456 137 411 Q124 366 124 314 Q124 263 137 218 Q150 173 177 139.5 Q204 106 245 87 Q286 68 341 68 Q379 68 412.5 80 Q446 92 471.5 114 Q497 136 513 167 Q529 198 532 236 L318 236 Z " />
<glyph glyph-name="uni0048" unicode="H" horiz-adv-x="652" d="M504 630 L504 359 L148 359 L148 630 L55 630 L55 0 L148 0 L148 283 L504 283 L504 0 L597 0 L597 630 L504 630 Z " />
<glyph glyph-name="uni0049" unicode="I" horiz-adv-x="202" d="M147 0 L55 0 L55 630 L147 630 L147 0 Z " />
<glyph glyph-name="uni004A" unicode="J" horiz-adv-x="501" d="M363 630 L455 630 L455 230 Q455 -12 222 -12 Q124 -13 69 45 Q14 103 10 194 L99 206 Q102 142 128.5 105 Q155 68 224 68 Q306 70 334 110.5 Q362 151 363 227 L363 630 Z " />
<glyph glyph-name="uni004B" unicode="K" horiz-adv-x="623" d="M333 376 L597 630 L487 630 L147 302 L147 630 L55 630 L55 0 L147 0 L147 197 L271 316 L517 0 L627 0 L628 0 L333 376 Z " />
<glyph glyph-name="uni004C" unicode="L" horiz-adv-x="521" d="M147 76 L147 630 L55 630 L55 0 L496 0 L496 76 L147 76 Z " />
<glyph glyph-name="uni004D" unicode="M" horiz-adv-x="777" d="M566 630 L390 90 L386 90 L214 630 L55 630 L55 0 L147 0 L146 548 L150 548 L334 0 L442 0 L627 548 L631 548 L630 0 L722 0 L722 630 L566 630 Z " />
<glyph glyph-name="uni004E" unicode="N" horiz-adv-x="629" d="M482 630 L482 90 L478 90 L200 630 L55 630 L55 0 L147 0 L147 539 L151 539 L428 0 L574 0 L574 630 L482 630 Z " />
<glyph glyph-name="uni004F" unicode="O" horiz-adv-x="688" d="M344 642 Q415 642 473.5 617 Q532 592 574 548 Q616 504 639 444 Q662 384 662 314 Q662 245 639 185 Q616 125 574 81.5 Q532 38 473.5 13 Q415 -12 344 -12 Q273 -12 214.5 13 Q156 38 114 81.5 Q72 125 49 185 Q26 245 26 314 Q26 384 49 444 Q72 504 114 548 Q156 592 214.5 617 Q273 642 344 642 Z M344 68 Q447 68 505.5 134 Q564 200 564 315 Q564 430 505.5 496 Q447 562 344 562 Q241 562 182.5 496 Q124 430 124 315 Q124 200 182.5 134 Q241 68 344 68 Z " />
<glyph glyph-name="uni0050" unicode="P" horiz-adv-x="543" d="M314 630 Q411 630 470 575 Q529 520 529 426 Q529 332 470 278.5 Q411 225 314 225 L147 225 L147 0 L55 0 L55 630 L314 630 Z M309 301 Q369 301 400 333.5 Q431 366 431 427 Q431 488 400 521 Q369 554 310 554 L147 554 L147 301 L309 301 Z " />
<glyph glyph-name="uni0051" unicode="Q" horiz-adv-x="688" d="M311 -11 Q341 -20 384.5 -40.5 Q428 -61 474 -82.5 Q520 -104 563.5 -121 Q607 -138 638 -139 L650 -216 Q629 -216 602 -210 Q578 -206 547.5 -196 Q517 -186 479 -168 Q425 -142 380.5 -120.5 Q336 -99 294 -85 Q267 -76 241 -76 Q204 -76 172 -93.5 Q140 -111 112 -143 L72 -76 Q102 -33 139.5 -13.5 Q177 6 219 6 Q223 6 227 5.5 Q231 5 235 5 Q138 37 82 120 Q26 203 26 314 Q26 384 49 444 Q72 504 114 548 Q156 592 214.5 617 Q273 642 344 642 Q415 642 473.5 617 Q532 592 574 548 Q616 504 639 444 Q662 384 662 314 Q662 245 639 185 Q616 125 574 81.5 Q532 38 473.5 13 Q415 -12 344 -12 Q335 -12 326 -11.5 Q317 -11 308 -10 L311 -11 Z M124 315 Q124 200 182.5 134 Q241 68 344 68 Q447 68 505.5 134 Q564 200 564 315 Q564 430 505.5 496 Q447 562 344 562 Q241 562 182.5 496 Q124 430 124 315 Z " />
<glyph glyph-name="uni0052" unicode="R" horiz-adv-x="591" d="M540 31 Q540 11 553 0 L458 0 Q448 12 448 32 L448 136 Q448 205 414 232 Q380 259 301 259 L147 259 L147 0 L55 0 L55 630 L334 630 Q374 630 414 620.5 Q454 611 485.5 590 Q517 569 536.5 534 Q556 499 556 448 Q556 408 543.5 382 Q531 356 513 340 Q495 324 475.5 316 Q456 308 442 305 Q495 291 517.5 255.5 Q540 220 540 149 L540 31 Z M324 335 Q390 335 424 365 Q458 395 458 448 Q458 501 424 527.5 Q390 554 325 554 L147 554 L147 335 L324 335 Z " />
<glyph glyph-name="uni0053" unicode="S" horiz-adv-x="585" d="M550 170 Q550 85 483 36.5 Q416 -12 300 -12 Q186 -12 110.5 41.5 Q35 95 21 186 L106 206 Q110 180 124.5 154.5 Q139 129 164 109 Q189 89 223 77 Q257 65 300 65 Q334 65 363.5 73 Q393 81 414.5 94.5 Q436 108 448.5 126.5 Q461 145 461 166 Q461 208 431.5 231.5 Q402 255 336 267 L211 290 Q36 323 36 458 Q36 543 100 592.5 Q164 642 276 642 Q335 642 378 632.5 Q421 623 452 603 Q483 583 502.5 550.5 Q522 518 533 471 L448 451 Q435 511 393.5 538 Q352 565 277 565 Q207 565 166 537 Q125 509 125 463 Q125 439 139.5 423 Q154 407 174 396 Q194 385 215 379.5 Q236 374 250 371 L364 350 Q405 342 439.5 330.5 Q474 319 498.5 299.5 Q523 280 536.5 248.5 Q550 217 550 170 Z " />
<glyph glyph-name="uni0054" unicode="T" horiz-adv-x="585" d="M23 630 L23 555 L23 554 L247 554 L247 0 L339 0 L339 554 L562 554 L562 555 L562 630 L23 630 Z " />
<glyph glyph-name="uni0055" unicode="U" horiz-adv-x="611" d="M561 630 L561 240 Q561 171 541 123 Q521 75 486.5 45 Q452 15 405 1.5 Q358 -12 305 -12 Q252 -12 205.5 1.5 Q159 15 124.5 45 Q90 75 70 123 Q50 171 50 240 L50 630 L142 630 L142 264 Q142 162 182 115 Q222 68 305 68 Q388 68 428.5 115 Q469 162 469 263 L469 630 L561 630 Z " />
<glyph glyph-name="uni0056" unicode="V" horiz-adv-x="622" d="M514 630 L311 90 L307 90 L102 630 L6 630 L255 0 L363 0 L610 630 L514 630 Z " />
<glyph glyph-name="uni0057" unicode="W" horiz-adv-x="813" d="M713 630 L591 90 L587 90 L465 630 L347 630 L225 90 L221 90 L99 630 L6 630 L155 0 L281 0 L404 548 L408 548 L531 0 L657 0 L807 630 L713 630 Z " />
<glyph glyph-name="uni0058" unicode="X" horiz-adv-x="597" d="M577 630 L475 630 L300 396 L126 630 L20 630 L245 327 L6 0 L111 0 L297 254 L483 0 L591 0 L352 327 L577 630 Z " />
<glyph glyph-name="uni0059" unicode="Y" horiz-adv-x="586" d="M477 629 L293 328 L109 629 L6 629 L247 249 L247 0 L339 0 L339 249 L580 629 L477 629 Z " />
<glyph glyph-name="uni005A" unicode="Z" horiz-adv-x="570" d="M147 76 L540 76 L540 0 L30 0 L30 86 L416 554 L36 554 L36 630 L532 630 L532 543 L147 76 Z " />
<glyph glyph-name="uni005B" unicode="&#x5b;" horiz-adv-x="272" d="M151 -5 L240 -5 L240 -84 L68 -84 L68 659 L240 659 L240 579 L151 579 L151 -5 Z " />
<glyph glyph-name="uni005C" unicode="&#x5c;" horiz-adv-x="328" d="M92 658 L348 -84 L257 -84 L2 658 L92 658 Z " />
<glyph glyph-name="uni005D" unicode="&#x5d;" horiz-adv-x="272" d="M122 -5 L32 -5 L32 -84 L204 -84 L204 659 L32 659 L32 579 L122 579 L122 -5 Z " />
<glyph glyph-name="uni005E" unicode="&#x5e;" horiz-adv-x="364" d="M107 428 L180 545 L255 428 L354 428 L220 630 L144 630 L10 428 L107 428 Z " />
<glyph glyph-name="uni005F" unicode="&#x5f;" horiz-adv-x="384" d="M364 -115 L20 -115 L20 -45 L364 -45 L364 -115 Z " />
<glyph glyph-name="uni0060" unicode="&#x60;" horiz-adv-x="476" d="M318 504 L264 630 L158 630 L255 504 L318 504 Z " />
<glyph glyph-name="uni0061" unicode="a" horiz-adv-x="451" d="M395 77 Q395 62 403.5 57.5 Q412 53 423 53 Q430 53 438 55 Q442 55 445 56 L445 -1 Q431 -8 418 -10 Q405 -12 394 -12 Q356 -12 337 8 Q318 28 310 47 Q293 30 260.5 9 Q228 -12 180 -12 Q141 -12 112 -0.5 Q83 11 64 29.5 Q45 48 36 71 Q27 94 27 117 Q27 159 43 184 Q59 209 84.5 224 Q110 239 141 246.5 Q172 254 202 259 Q244 267 274.5 276.5 Q305 286 305 315 Q305 342 285 356.5 Q265 371 230 373 Q198 373 171 359 Q144 345 136 307 L46 316 Q48 327 55.5 349 Q63 371 82.5 393 Q102 415 137 431 Q172 447 229 447 Q264 447 294 439 Q324 431 346.5 414 Q369 397 382 370 Q395 343 395 305 L395 77 Z M305 165 L305 229 Q288 222 260.5 214.5 Q233 207 215 202 Q200 199 183 194 Q166 189 152 181 Q138 173 128.5 160 Q119 147 119 128 Q119 94 141 80 Q163 66 194 66 Q239 66 272 91.5 Q305 117 305 165 Z " />
<glyph glyph-name="uni0062" unicode="b" horiz-adv-x="481" d="M278 447 Q315 447 347.5 431.5 Q380 416 404 387 Q428 358 442 315 Q456 272 456 218 Q456 167 443.5 125 Q431 83 408 52.5 Q385 22 352 5 Q319 -12 277 -12 Q229 -12 197 7.5 Q165 27 142 65 L140 65 L125 0 L50 0 L50 630 L140 630 L140 365 L142 365 Q162 403 196 425 Q230 447 278 447 Z M251 60 Q304 60 334 102 Q364 144 364 216 Q364 288 334 330 Q304 372 251 372 Q198 372 168 330 Q138 288 138 216 Q138 144 168 102 Q198 60 251 60 Z " />
<glyph glyph-name="uni0063" unicode="c" horiz-adv-x="477" d="M246 63 Q291 63 322.5 87 Q354 111 367 156 L452 133 Q433 63 378 25.5 Q323 -12 252 -12 Q203 -12 161.5 5 Q120 22 89.5 53 Q59 84 42 126 Q25 168 25 218 Q25 268 41.5 310 Q58 352 88 382.5 Q118 413 160 430.5 Q202 448 252 448 Q323 448 378 410 Q433 372 452 303 L367 279 Q354 324 323 349 Q292 374 246 374 Q185 374 151 332 Q117 290 117 218 Q117 146 151 104.5 Q185 63 246 63 Z " />
<glyph glyph-name="uni0064" unicode="d" horiz-adv-x="481" d="M203 447 Q251 447 285 425 Q319 403 339 365 L341 365 L341 630 L431 630 L431 0 L341 0 L341 65 L339 65 Q316 27 284 7.5 Q252 -12 204 -12 Q162 -12 129 5 Q96 22 73 52.5 Q50 83 37.5 125 Q25 167 25 218 Q25 272 39 315 Q53 358 77 387 Q101 416 133.5 431.5 Q166 447 203 447 Z M230 60 Q283 60 313 102 Q343 144 343 216 Q343 288 313 330 Q283 372 230 372 Q177 372 147 330 Q117 288 117 216 Q117 144 147 102 Q177 60 230 60 Z " />
<glyph glyph-name="uni0065" unicode="e" horiz-adv-x="482" d="M254 58 Q297 58 329 78.5 Q361 99 377 138 L457 118 Q434 56 378 22 Q322 -12 252 -12 Q145 -12 84 52.5 Q23 117 25 227 Q29 327 90 386 Q151 445 251 445 Q295 445 332.5 429 Q370 413 397.5 385 Q425 357 441 318.5 Q457 280 457 234 L457 196 L117 196 Q124 133 159 95.5 Q194 58 254 58 Z M242 375 Q184 375 155 341 Q126 307 119 253 L365 253 Q358 305 328.5 340 Q299 375 242 375 Z " />
<glyph glyph-name="uni0066" unicode="f" horiz-adv-x="291" d="M174 491 L174 436 L292 436 L292 370 L174 370 L174 0 L84 0 L84 370 L3 370 L3 436 L84 436 L84 498 Q82 544 101 575.5 Q120 607 150 624 Q167 634 185.5 638 Q204 642 223 642 Q264 642 302 622 L283 556 Q275 559 267 562 Q260 564 251.5 566 Q243 568 235 568 Q227 568 216.5 566 Q206 564 196.5 556 Q187 548 180.5 532.5 Q174 517 174 491 Z " />
<glyph glyph-name="uni0067" unicode="g" horiz-adv-x="495" d="M325 84 Q397 84 437.5 56.5 Q478 29 478 -29 Q478 -106 411 -148 Q344 -190 224 -190 Q121 -190 62.5 -160 Q4 -130 4 -69 Q4 -48 12.5 -34 Q21 -20 31.5 -10.5 Q42 -1 51.5 3.5 Q61 8 64 9 Q47 22 36 43 Q25 64 25 89 Q25 126 47 153.5 Q69 181 101 186 Q75 206 59.5 233.5 Q44 261 44 296 Q44 330 58.5 357.5 Q73 385 98 404.5 Q123 424 157.5 435 Q192 446 232 446 Q269 446 301 437 Q333 428 358 411 Q369 425 394.5 441.5 Q420 458 462 458 L474 458 L495 373 L476 373 Q453 373 434 370 Q415 367 404 363 Q421 332 421 296 Q421 263 406.5 235.5 Q392 208 366.5 188.5 Q341 169 306.5 158 Q272 147 232 147 Q208 147 187.5 149.5 Q167 152 147 160 Q133 155 124 145.5 Q115 136 115 122 Q115 106 126 96.5 Q137 87 152 85 Q157 84 162 84 Q167 84 172 84 L325 84 Z M233 391 Q187 391 161.5 366 Q136 341 136 296 Q136 252 161.5 227 Q187 202 233 202 Q280 202 304.5 227 Q329 252 329 296 Q329 341 304.5 366 Q280 391 233 391 Z M221 -135 Q292 -135 340 -114.5 Q388 -94 388 -53 Q388 -25 370 -13.5 Q352 -2 319 -2 L158 -2 Q132 -2 114 -15 Q96 -28 96 -59 Q96 -97 130 -116 Q164 -135 221 -135 Z " />
<glyph glyph-name="uni0068" unicode="h" horiz-adv-x="511" d="M279 447 Q370 447 413 399 Q456 351 456 274 L456 0 L366 0 L366 257 Q366 310 340 341.5 Q314 373 262 373 Q238 373 216 364 Q194 355 177 338.5 Q160 322 150 299 Q140 276 140 247 L140 0 L50 0 L50 630 L140 630 L140 356 Q156 394 195.5 420.5 Q235 447 279 447 Z " />
<glyph glyph-name="uni0069" unicode="i" horiz-adv-x="192" d="M50 612 L142 612 L142 519 L50 519 L50 612 Z M141 436 L51 436 L51 0 L141 0 L141 436 Z " />
<glyph glyph-name="uni006A" unicode="j" horiz-adv-x="186" d="M136 612 L136 519 L44 519 L44 612 L136 612 Z M135 436 L135 -59 Q135 -122 99.5 -155.5 Q64 -189 4 -189 Q-14 -189 -32 -185.5 Q-50 -182 -67 -176 L-60 -101 Q-46 -107 -31 -111 Q-16 -115 -1 -115 Q45 -115 45 -68 L45 436 L135 436 Z " />
<glyph glyph-name="uni006B" unicode="k" horiz-adv-x="470" d="M445 436 L335 436 L140 252 L140 630 L50 630 L50 0 L140 0 L140 149 L201 205 L365 0 L470 0 L260 263 L445 436 Z " />
<glyph glyph-name="uni006C" unicode="l" horiz-adv-x="191" d="M141 630 L50 630 L50 0 L141 0 L141 630 Z " />
<glyph glyph-name="uni006D" unicode="m" horiz-adv-x="758" d="M703 275 L703 0 L613 0 L613 266 Q613 314 591.5 343.5 Q570 373 525 373 Q483 373 452 341.5 Q421 310 421 256 L421 0 L331 0 L331 266 Q331 315 309.5 344 Q288 373 243 373 Q201 373 170.5 341.5 Q140 310 140 257 L140 0 L50 1 L50 438 L126 438 L140 360 Q154 398 191.5 422.5 Q229 447 274 447 Q334 447 361 421 Q388 395 399 354 Q410 387 432 405.5 Q454 424 478 433.5 Q502 443 522.5 445 Q543 447 552 447 Q633 447 668 398.5 Q703 350 703 275 Z " />
<glyph glyph-name="uni006E" unicode="n" horiz-adv-x="481" d="M275 447 Q356 447 396 398.5 Q436 350 436 275 L436 0 L346 0 L346 265 Q346 315 326 344 Q306 373 258 373 Q236 373 215 364.5 Q194 356 177.5 341 Q161 326 151 304.5 Q141 283 141 256 L141 0 L50 0 L50 436 L127 436 L141 357 Q156 395 194.5 421 Q233 447 275 447 Z " />
<glyph glyph-name="uni006F" unicode="o" horiz-adv-x="499" d="M249 447 Q296 447 336.5 430.5 Q377 414 406.5 384 Q436 354 453 311.5 Q470 269 470 217 Q470 166 453 123.5 Q436 81 406.5 51 Q377 21 336.5 4.5 Q296 -12 249 -12 Q199 -12 157.5 5.5 Q116 23 86.5 54 Q57 85 41 126.5 Q25 168 25 217 Q25 266 41 308 Q57 350 86.5 381 Q116 412 157.5 429.5 Q199 447 249 447 Z M248 62 Q308 62 343 104 Q378 146 378 218 Q378 290 343 331.5 Q308 373 248 373 Q186 373 151.5 331.5 Q117 290 117 218 Q117 146 151.5 104 Q186 62 248 62 Z " />
<glyph glyph-name="uni0070" unicode="p" horiz-adv-x="481" d="M278 -12 Q230 -12 196 10 Q162 32 142 70 L140 70 L140 -177 L50 -177 L50 436 L140 436 L140 370 L142 370 Q165 408 197 427.5 Q229 447 277 447 Q319 447 352 430 Q385 413 408 382.5 Q431 352 443.5 310 Q456 268 456 217 Q456 163 442 120 Q428 77 404 48 Q380 19 347.5 3.5 Q315 -12 278 -12 Z M251 375 Q198 375 168 333 Q138 291 138 219 Q138 147 168 105 Q198 63 251 63 Q304 63 334 105 Q364 147 364 219 Q364 291 334 333 Q304 375 251 375 Z " />
<glyph glyph-name="uni0071" unicode="q" horiz-adv-x="481" d="M203 -12 Q166 -12 133.5 3.5 Q101 19 77 48 Q53 77 39 120 Q25 163 25 217 Q25 268 37.5 310 Q50 352 73 382.5 Q96 413 129 430 Q162 447 204 447 Q252 447 284 427.5 Q316 408 339 370 L341 370 L341 436 L431 436 L431 -177 L341 -177 L341 70 L339 70 Q319 32 285 10 Q251 -12 203 -12 Z M230 375 Q177 375 147 333 Q117 291 117 219 Q117 147 147 105 Q177 63 230 63 Q283 63 313 105 Q343 147 343 219 Q343 291 313 333 Q283 375 230 375 Z " />
<glyph glyph-name="uni0072" unicode="r" horiz-adv-x="307" d="M302 438 L302 356 Q294 358 287.5 358 Q281 358 275 358 Q217 358 180.5 320.5 Q144 283 146 209 L146 0 L55 0 L55 436 L129 436 L143 368 L145 368 Q189 440 275 440 Q281 440 288 439.5 Q295 439 302 438 Z " />
<glyph glyph-name="uni0073" unicode="s" horiz-adv-x="420" d="M263 252 Q292 246 316.5 237.5 Q341 229 358.5 214 Q376 199 385.5 176.5 Q395 154 395 121 Q395 84 379 58.5 Q363 33 337.5 17.5 Q312 2 280.5 -5 Q249 -12 217 -12 Q137 -12 84 26.5 Q31 65 20 129 L97 146 Q104 103 140.5 81 Q177 59 218 59 Q259 59 286 76.5 Q313 94 313 118 Q313 143 299 154 Q290 162 275.5 166 Q261 170 240 174 L156 189 Q105 197 67.5 228 Q30 259 30 314 Q30 350 45 375.5 Q60 401 84 417 Q108 433 139 440 Q170 447 201 447 Q284 447 325.5 419 Q367 391 384 325 L307 307 Q299 343 274.5 359.5 Q250 376 202 376 Q160 376 137 360 Q114 344 114 317 Q114 304 121 294.5 Q128 285 139 279.5 Q150 274 162.5 271 Q175 268 186 266 L263 252 Z " />
<glyph glyph-name="uni0074" unicode="t" horiz-adv-x="329" d="M314 373 L193 373 L193 109 Q193 62 239 62 Q254 62 269 66 Q284 70 298 76 L305 1 Q298 -1 290.5 -3 Q283 -5 275 -7 Q250 -12 234 -12 Q172 -12 137.5 23 Q103 58 103 118 L103 373 L3 373 L3 436 L5 436 Q40 436 59.5 442.5 Q79 449 88.5 463.5 Q98 478 100.5 501 Q103 524 103 557 L103 571 L193 571 Q195 550 195 527 Q194 506 190.5 483 Q187 460 178 436 L314 436 L314 373 Z " />
<glyph glyph-name="uni0075" unicode="u" horiz-adv-x="481" d="M207 -12 Q126 -12 85.5 35.5 Q45 83 45 159 L45 436 L136 436 L136 169 Q136 120 156 91 Q176 62 224 62 Q246 62 266.5 70.5 Q287 79 303.5 94 Q320 109 330 130.5 Q340 152 340 179 L340 436 L431 436 L431 0 L354 0 L340 77 Q325 39 287 13.5 Q249 -12 207 -12 Z " />
<glyph glyph-name="uni0076" unicode="v" horiz-adv-x="452" d="M3 436 L98 436 L224 78 L228 78 L354 436 L449 436 L279 0 L174 0 L3 436 Z " />
<glyph glyph-name="uni0077" unicode="w" horiz-adv-x="655" d="M559 436 L473 96 L470 96 L385 436 L270 436 L184 80 L181 80 L96 436 L3 436 L130 0 L235 0 L325 347 L329 347 L420 0 L524 0 L652 436 L559 436 Z " />
<glyph glyph-name="uni0078" unicode="x" horiz-adv-x="476" d="M3 0 L105 0 L237 163 L365 0 L473 0 L290 228 L458 436 L356 436 L240 291 L128 436 L19 436 L188 223 L3 0 Z " />
<glyph glyph-name="uni0079" unicode="y" horiz-adv-x="448" d="M350 436 L445 436 L250 -54 Q238 -85 225.5 -110.5 Q213 -136 195 -153.5 Q177 -171 152.5 -180.5 Q128 -190 91 -190 Q60 -190 28 -181 L28 -112 Q35 -114 44 -115 Q51 -116 60 -117 Q69 -118 78 -118 Q114 -118 134 -102 Q154 -86 171 -43 Q172 -41 174 -35.5 Q176 -30 178 -23 Q181 -11 177 -1 L3 436 L98 436 L222 95 L226 95 L350 436 Z " />
<glyph glyph-name="uni007A" unicode="z" horiz-adv-x="411" d="M130 74 L382 74 L382 0 L29 0 L29 72 L266 364 L33 364 L33 438 L375 438 L375 376 L130 74 Z " />
<glyph glyph-name="uni007B" unicode="&#x7b;" horiz-adv-x="291" d="M190 387 Q190 345 179.5 325.5 Q169 306 140 289 Q168 272 179 251.5 Q190 231 190 190 L190 21 Q190 6 194.5 3 Q199 0 207 0 L261 0 L261 -84 L208 -84 Q190 -84 171 -79.5 Q152 -75 137 -62.5 Q122 -50 112 -28.5 Q102 -7 102 28 L102 195 Q102 233 93 242 Q84 251 62 251 L30 251 L30 328 L62 328 Q84 328 93 337 Q102 346 102 384 L102 550 Q102 569 106 589 Q110 609 122 625 Q134 641 154.5 651.5 Q175 662 208 662 L261 662 L261 578 L227 578 Q214 578 202 571.5 Q190 565 190 557 L190 387 Z " />
<glyph glyph-name="uni007C" unicode="&#x7c;" horiz-adv-x="190" d="M55 660 L55 -83 L135 -83 L135 660 L55 660 Z " />
<glyph glyph-name="uni007D" unicode="&#x7d;" horiz-adv-x="291" d="M101 387 L101 557 Q101 565 89 571.5 Q77 578 65 578 L30 578 L30 662 L84 662 Q117 662 137.5 651.5 Q158 641 169.5 625 Q181 609 185 589 Q189 569 189 550 L189 384 Q189 346 198.5 337 Q208 328 229 328 L261 328 L261 251 L229 251 Q208 251 198.5 242 Q189 233 189 195 L189 28 Q189 -7 179.5 -28.5 Q170 -50 154.5 -62.5 Q139 -75 120.5 -79.5 Q102 -84 84 -84 L30 -84 L30 0 L85 0 Q93 0 97 3 Q101 6 101 21 L101 190 Q101 231 112 251.5 Q123 272 151 289 Q123 306 112 325.5 Q101 345 101 387 Z " />
<glyph glyph-name="uni007E" unicode="&#x7e;" horiz-adv-x="381" d="M41 203 Q41 259 61.5 292.5 Q82 326 126 326 Q146 326 161.5 318 Q177 310 190 300.5 Q203 291 215.5 283 Q228 275 243 275 Q263 275 271 285.5 Q279 296 280 323 L340 323 Q340 267 319 233.5 Q298 200 255 200 Q234 200 218.5 208 Q203 216 190 226 Q177 236 164.5 244 Q152 252 137 252 Q116 252 108.5 241 Q101 230 99 203 L41 203 Z " />
<glyph glyph-name="uni00A1" unicode="&#xa1;" horiz-adv-x="184" d="M38 395 L38 518 L146 518 L146 395 L38 395 Z M71 352 L46 93 L46 -112 L140 -112 L140 91 L114 352 L71 352 Z " />
<glyph glyph-name="uni00A2" unicode="&#xa2;" horiz-adv-x="478" d="M259 75 Q300 78 328 102 Q356 126 367 168 L453 145 Q434 77 381 39.5 Q328 2 259 0 L259 -89 L219 -89 L219 2 Q177 8 141 27 Q105 46 79.5 76 Q54 106 39.5 145 Q25 184 25 230 Q25 275 39 314 Q53 353 78.5 383 Q104 413 140 432 Q176 451 219 457 L219 549 L259 549 L259 459 Q328 457 381 420 Q434 383 453 314 L367 290 Q356 332 328 356.5 Q300 381 259 385 L259 75 Z M117 230 Q117 166 144 126 Q171 86 219 77 L219 383 Q171 374 144 333.5 Q117 293 117 230 Z " />
<glyph glyph-name="uni00A3" unicode="&#xa3;" horiz-adv-x="510" d="M469 131 L491 40 Q459 13 431.5 2.5 Q404 -8 378 -8 Q354 -8 331.5 -1.5 Q309 5 287 13 Q265 21 242 27.5 Q219 34 195 34 Q172 34 146.5 25.5 Q121 17 92 -6 L42 64 Q72 85 95 108.5 Q118 132 128.5 159.5 Q139 187 136.5 219 Q134 251 113 289 L11 289 L11 352 L85 352 Q77 372 70 397 Q63 422 63 454 Q63 542 116.5 594.5 Q170 647 261 647 Q352 647 405.5 597.5 Q459 548 466 460 L467 448 L386 427 L385 444 Q384 466 378.5 488 Q373 510 359.5 527.5 Q346 545 323 556 Q300 567 264 567 Q162 567 162 453 Q162 426 167.5 402 Q173 378 183 352 L337 352 L337 289 L207 289 Q224 244 218 197 Q212 150 188 112 Q194 113 199.5 113 Q205 113 211 113 Q236 113 257.5 107.5 Q279 102 298 96 Q317 90 335 84.5 Q353 79 371 79 Q393 79 416.5 90 Q440 101 469 131 Z " />
<glyph glyph-name="uni00A5" unicode="&#xa5;" horiz-adv-x="600" d="M590 630 L483 630 L297 344 L115 630 L4 630 L201 327 L72 327 L72 253 L249 253 L249 252 L249 189 L72 189 L72 116 L249 116 L249 0 L344 0 L344 116 L522 116 L522 189 L344 189 L344 252 L344 253 L522 253 L522 327 L392 327 L590 630 Z " />
<glyph glyph-name="uni00A7" unicode="&#xa7;" horiz-adv-x="466" d="M415 145 Q446 111 446 51 Q446 -18 392.5 -57 Q339 -96 245 -96 Q152 -96 91 -51.5 Q30 -7 20 68 L93 82 Q96 61 107 40 Q118 19 137 3 Q156 -13 183 -23 Q210 -33 245 -33 Q299 -33 336 -10 Q373 13 373 47 Q373 81 349 101 L347 102 Q323 120 274 129 L174 147 Q33 174 33 282 Q33 338 68 375 Q33 408 33 463 Q33 532 84.5 571 Q136 610 226 610 Q321 610 368 578.5 Q415 547 433 471 L361 454 Q350 503 318.5 524.5 Q287 546 227 546 Q170 546 137.5 525 Q105 504 105 467 Q105 448 116.5 434.5 Q128 421 144 412.5 Q160 404 177 399 Q194 394 205 392 L297 375 Q330 369 357.5 360 Q385 351 404.5 335 Q424 319 435 294 Q446 269 446 231 Q446 179 415 145 Z M205 212 L297 195 Q329 189 351 182 Q373 202 373 227 Q373 261 350 280 Q327 299 274 309 L174 328 Q162 330 151.5 332.5 Q141 335 131 339 Q105 318 105 286 Q105 267 116.5 254 Q128 241 144 232 Q160 223 177 218.5 Q194 214 205 212 Z " />
<glyph glyph-name="uni00A8" unicode="&#xa8;" horiz-adv-x="502" d="M115 674 L219 674 L219 570 L115 570 L115 674 Z M282 674 L387 674 L387 570 L282 570 L282 674 Z " />
<glyph glyph-name="uni00A9" unicode="&#xa9;" horiz-adv-x="720" d="M359 -12 Q293 -12 234 12.5 Q175 37 130.5 80.5 Q86 124 60.5 183.5 Q35 243 35 314 Q35 385 60.5 445.5 Q86 506 130.5 549.5 Q175 593 234 617.5 Q293 642 359 642 Q427 642 486 617.5 Q545 593 589.5 549.5 Q634 506 659.5 445.5 Q685 385 685 314 Q685 243 659.5 183.5 Q634 124 589.5 80.5 Q545 37 486 12.5 Q427 -12 359 -12 Z M359 601 Q301 601 249.5 579.5 Q198 558 160.5 520 Q123 482 101 429.5 Q79 377 79 314 Q79 252 101 199.5 Q123 147 160.5 109 Q198 71 249.5 49.5 Q301 28 359 28 Q418 28 469 49.5 Q520 71 557.5 109 Q595 147 617 199.5 Q639 252 639 314 Q639 377 617 429.5 Q595 482 557.5 520 Q520 558 469 579.5 Q418 601 359 601 Z M466 260 L534 242 Q520 184 475 150 Q430 116 370 116 Q325 116 291 133 Q257 150 233.5 178 Q210 206 198.5 242 Q187 278 187 315 Q187 351 198 386.5 Q209 422 231.5 449.5 Q254 477 289 495 Q324 513 370 514 Q430 514 475 479.5 Q520 445 534 387 L467 369 Q457 405 431.5 427 Q406 449 368 449 Q343 449 323 437.5 Q303 426 289.5 407 Q276 388 268.5 363.5 Q261 339 261 313 Q260 288 266.5 263.5 Q273 239 286.5 219.5 Q300 200 321 188 Q342 176 370 176 Q406 176 431 199.5 Q456 223 466 260 Z " />
<glyph glyph-name="uni00AA" unicode="&#xaa;" horiz-adv-x="352" d="M345 350 L345 298 L342 296 Q321 288 304 288 Q275 288 260 302.5 Q245 317 239 329 Q193 288 143 288 Q112 288 89.5 297 Q67 306 52 320 Q37 334 30 352.5 Q23 371 23 389 Q23 423 37 443.5 Q51 464 72.5 476 Q94 488 119.5 494 Q145 500 168 504 Q202 510 217 516.5 Q232 523 232 540 Q232 560 216.5 568.5 Q201 577 178 577 Q153 577 136.5 566.5 Q120 556 115 532 L39 546 Q41 557 48 573.5 Q55 590 70.5 605 Q86 620 112.5 631 Q139 642 179 642 Q235 642 271.5 617 Q308 592 308 531 L308 359 Q308 346 323 346 Q333 346 339 348 L345 350 Z M232 417 L232 456 Q218 450 197.5 446 Q177 442 160 440 Q145 438 143 437 Q132 435 116.5 426.5 Q101 418 101 389 Q101 365 114.5 355.5 Q128 346 151 346 Q186 346 209 366 Q232 386 232 417 Z " />
<glyph glyph-name="uni00AB" unicode="&#xab;" horiz-adv-x="393" d="M204 253 L355 389 L355 285 L278 219 L355 146 L355 50 L204 187 L204 253 Z M38 253 L38 187 L190 50 L190 146 L113 219 L190 285 L190 389 L38 253 Z " />
<glyph glyph-name="uni00AE" unicode="&#xae;" horiz-adv-x="396" d="M196 292 Q160 292 128.5 305 Q97 318 73.5 341 Q50 364 36 396 Q22 428 22 466 Q22 504 36 536.5 Q50 569 73.5 592.5 Q97 616 128.5 629 Q160 642 196 642 Q232 642 264 629 Q296 616 319.5 592.5 Q343 569 357 536.5 Q371 504 371 466 Q371 428 357 396 Q343 364 319.5 341 Q296 318 264 305 Q232 292 196 292 Z M196 612 Q166 612 140.5 601 Q115 590 95.5 570.5 Q76 551 65 524.5 Q54 498 54 466 Q54 435 65 408.5 Q76 382 95.5 362.5 Q115 343 140.5 332.5 Q166 322 196 322 Q226 322 251.5 332.5 Q277 343 296.5 362.5 Q316 382 327 408.5 Q338 435 338 466 Q338 498 327 524.5 Q316 551 296.5 570.5 Q277 590 251.5 601 Q226 612 196 612 Z M272 384 Q272 377 275 372 Q276 369 277 368 L237 368 Q235 369 234 372 Q231 377 231 384 L231 416 Q231 431 224.5 438 Q218 445 195 445 L157 445 L157 368 L116 368 L116 565 L204 565 Q217 565 228 563 Q239 561 251 554 Q276 538 276 506 Q276 486 265 477 Q254 468 246 463 Q256 456 263.5 448 Q271 440 271 419 L272 384 Z M206 480 Q218 480 226.5 486 Q235 492 235 506 Q235 520 226.5 525 Q218 530 205 530 L157 530 L157 480 L206 480 Z " />
<glyph glyph-name="uni00AF" unicode="&#xaf;" horiz-adv-x="507" d="M125 583 L390 583 L390 506 L125 506 L125 583 Z " />
<glyph glyph-name="uni00B0" unicode="&#xb0;" horiz-adv-x="348" d="M173 650 Q204 650 230.5 639 Q257 628 276.5 609 Q296 590 307 564.5 Q318 539 318 510 Q318 480 307 454 Q296 428 276.5 409 Q257 390 230.5 379 Q204 368 173 368 Q143 368 117 379 Q91 390 71.5 409 Q52 428 41 454 Q30 480 30 510 Q30 539 41 564.5 Q52 590 71.5 609 Q91 628 117 639 Q143 650 173 650 Z M246 510 Q246 543 225.5 564 Q205 585 173 585 Q142 585 122 564 Q102 543 102 510 Q102 476 122 454.5 Q142 433 173 433 Q205 433 225.5 454 Q246 475 246 510 Z " />
<glyph glyph-name="uni00B1" unicode="&#xb1;" horiz-adv-x="635" d="M578 416 L350 416 L350 604 L273 604 L273 416 L57 416 L57 337 L273 337 L273 156 L350 156 L350 337 L578 337 L578 416 Z M57 114 L578 114 L578 37 L57 37 L57 114 Z " />
<glyph glyph-name="uni00B2" unicode="&#xb2;" horiz-adv-x="327" d="M313 313 L313 246 L20 246 L20 294 Q30 303 44.5 315.5 Q59 328 74 340.5 Q89 353 102 364.5 Q115 376 122 382 Q135 393 152.5 408 Q170 423 186 440 Q202 457 212.5 476.5 Q223 496 223 516 Q223 545 207.5 559 Q192 573 164 573 L162 573 Q122 572 108 539 Q94 506 104 467 L28 467 Q20 503 25.5 535 Q31 567 49 591 Q67 615 96 628.5 Q125 642 164 642 Q222 642 261.5 610.5 Q301 579 301 518 Q301 467 267.5 426 Q234 385 192 349 L150 313 L313 313 Z " />
<glyph glyph-name="uni00B3" unicode="&#xb3;" horiz-adv-x="349" d="M297 429 Q332 399 332 354 Q331 319 317.5 295 Q304 271 281.5 256.5 Q259 242 230.5 235.5 Q202 229 171 229 Q100 229 59.5 265 Q19 301 17 374 L95 374 Q96 332 113 315 Q130 298 171 298 Q187 298 201.5 299.5 Q216 301 227.5 306.5 Q239 312 246 323 Q253 334 253 353 Q253 371 245.5 381 Q238 391 226 396 Q214 401 199.5 402.5 Q185 404 171 404 Q163 404 155.5 403.5 Q148 403 141 402 L141 476 Q148 475 155 474.5 Q162 474 170 474 Q197 474 219.5 482.5 Q242 491 242 523 Q240 557 220 565 Q200 573 170 573 Q134 573 119 556 Q104 539 104 497 L26 498 Q29 642 171 642 Q201 642 228 636 Q255 630 275 616.5 Q295 603 307 580 Q319 557 320 523 Q321 493 306.5 473 Q292 453 279 442 Q289 437 297 429 Z " />
<glyph glyph-name="uni00B4" unicode="&#xb4;" horiz-adv-x="476" d="M158 504 L212 630 L318 630 L221 504 L158 504 Z " />
<glyph glyph-name="uni00B6" unicode="&#xb6;" horiz-adv-x="509" d="M258 630 L454 630 L454 0 L378 0 L378 555 L318 555 L318 0 L243 0 L243 259 Q136 263 78 311 Q20 359 20 444 Q20 533 82 581.5 Q144 630 258 630 Z " />
<glyph glyph-name="uni00B7" unicode="&#xb7;" horiz-adv-x="185" d="M40 317 L145 317 L145 212 L40 212 L40 317 Z " />
<glyph glyph-name="uni00B8" unicode="&#xb8;" horiz-adv-x="603" d="M461 -106 Q461 -129 449.5 -143.5 Q438 -158 420.5 -166.5 Q403 -175 382.5 -178.5 Q362 -182 344 -182 Q307 -182 278 -170 Q249 -158 233 -144 L255 -106 Q274 -120 297 -128.5 Q320 -137 342 -137 Q358 -137 373.5 -132 Q389 -127 389 -111 Q389 -97 378 -89 Q368 -83 353 -83 Q331 -83 309 -93 L282 -80 L344 11 L392 11 L352 -43 Q367 -40 382 -40 Q414 -40 437.5 -55.5 Q461 -71 461 -106 Z " />
<glyph glyph-name="uni00B9" unicode="&#xb9;" horiz-adv-x="209" d="M112 630 L166 630 L166 240 L90 240 L90 520 Q75 512 50.5 509 Q26 506 9 506 L9 578 Q15 577 28 577 Q57 577 81.5 587.5 Q106 598 112 630 Z " />
<glyph glyph-name="uni00BA" unicode="&#xba;" horiz-adv-x="390" d="M194 642 Q230 642 261.5 629 Q293 616 316 593 Q339 570 352 537 Q365 504 365 464 Q365 424 352 391.5 Q339 359 316 336 Q293 313 261.5 300 Q230 287 194 287 Q155 287 123.5 300.5 Q92 314 69 338 Q46 362 33.5 394.5 Q21 427 21 464 Q21 502 33.5 534.5 Q46 567 69 591 Q92 615 123.5 628.5 Q155 642 194 642 Z M197 356 Q241 356 265.5 386.5 Q290 417 290 465 Q290 510 267.5 541.5 Q245 573 197 573 Q147 573 122 543 Q97 513 97 465 Q97 417 122.5 386.5 Q148 356 197 356 Z " />
<glyph glyph-name="uni00BB" unicode="&#xbb;" horiz-adv-x="393" d="M189 253 L38 389 L38 285 L115 219 L38 146 L38 50 L189 187 L189 253 Z M355 253 L355 187 L203 50 L203 146 L280 219 L203 285 L203 389 L355 253 Z " />
<glyph glyph-name="uni00BC" unicode="&#xbc;" horiz-adv-x="784" d="M139 630 L194 630 L194 240 L117 240 L117 522 Q108 517 95.5 514 Q83 511 71.5 509.5 Q60 508 51 507.5 Q42 507 40 507 L30 507 L30 578 L41 577 Q54 577 69 578.5 Q84 580 98 585 Q112 590 122.5 599 Q133 608 137 623 L139 630 Z M754 163 L754 94 L692 94 L692 0 L615 0 L615 94 L402 94 L402 169 L609 411 L692 411 L692 163 L754 163 Z M615 308 L492 163 L615 163 L615 308 Z M600 630 L194 0 L115 0 L521 630 L600 630 Z " />
<glyph glyph-name="uni00BD" unicode="&#xbd;" horiz-adv-x="768" d="M738 67 L738 0 L445 0 L445 48 Q455 57 469.5 69.5 Q484 82 499 94.5 Q514 107 527 118.5 Q540 130 547 136 Q560 148 577.5 162.5 Q595 177 611 194.5 Q627 212 637.5 231 Q648 250 648 270 Q648 299 632.5 313 Q617 327 589 327 L587 327 Q547 326 533 293 Q519 260 529 221 L453 221 Q445 257 450.5 289 Q456 321 474 345 Q492 369 521 382.5 Q550 396 589 396 Q647 396 686.5 365 Q726 334 726 272 Q726 221 692.5 180 Q659 139 617 103 L575 67 L738 67 Z M124 630 L178 630 L178 239 L102 239 L102 520 Q87 511 62.5 508 Q38 505 21 505 L21 577 Q37 577 53.5 578 Q70 579 84.5 584 Q99 589 109.5 599.5 Q120 610 124 630 Z M583 630 L177 0 L98 0 L504 630 L583 630 Z " />
<glyph glyph-name="uni00BE" unicode="&#xbe;" horiz-adv-x="855" d="M674 630 L268 0 L189 0 L595 630 L674 630 Z M300 429 Q334 398 334 353 Q334 318 320.5 294 Q307 270 284 255.5 Q261 241 232.5 234.5 Q204 228 173 228 Q103 228 61.5 264.5 Q20 301 20 373 L98 373 Q98 332 115.5 314.5 Q133 297 174 297 Q190 297 204.5 298.5 Q219 300 230.5 305.5 Q242 311 249 322 Q256 333 256 352 Q256 370 248.5 380 Q241 390 229 395 Q217 400 202.5 401.5 Q188 403 174 403 Q165 403 157.5 402.5 Q150 402 144 401 L144 475 Q150 474 157.5 473.5 Q165 473 173 473 Q200 473 222.5 481.5 Q245 490 245 522 Q243 556 223 564 Q203 572 173 572 Q137 572 122 555 Q107 538 106 496 L29 497 Q29 569 66 605 Q103 641 174 641 Q204 641 231 635 Q258 629 278 615.5 Q298 602 310 579 Q322 556 323 522 Q323 492 309 472 Q295 452 282 442 Q286 439 290.5 436 Q295 433 300 429 Z M831 163 L831 94 L769 94 L769 0 L692 0 L692 94 L479 94 L479 169 L686 411 L769 411 L769 163 L831 163 Z M692 308 L569 163 L692 163 L692 308 Z " />
<glyph glyph-name="uni00BF" unicode="&#xbf;" horiz-adv-x="474" d="M286 331 L181 331 L181 436 L286 436 L286 331 Z M234 -206 Q137 -206 81 -156.5 Q25 -107 25 -22 Q25 78 119 155 Q146 177 167 207 Q188 237 186 270 L281 270 Q284 242 275 217 Q266 192 251 170.5 Q236 149 218 131 Q200 113 184 98 Q155 72 138.5 44.5 Q122 17 123 -20 Q123 -78 153.5 -102 Q184 -126 239 -126 Q269 -126 293 -112.5 Q317 -99 332 -77.5 Q347 -56 353.5 -28.5 Q360 -1 356 27 L447 27 Q453 -20 442 -62 Q431 -104 403 -136 Q342 -206 234 -206 Z " />
<glyph glyph-name="uni00C0" unicode="&#xc0;" horiz-adv-x="617" d="M289 677 L192 803 L297 803 L351 677 L289 677 Z M515 0 L614 0 L362 630 L255 630 L3 0 L102 0 L167 175 L450 175 L515 0 Z M195 248 L306 548 L310 548 L422 248 L195 248 Z " />
<glyph glyph-name="uni00C1" unicode="&#xc1;" horiz-adv-x="617" d="M266 677 L320 803 L425 803 L328 677 L266 677 Z M515 0 L614 0 L362 630 L255 630 L3 0 L102 0 L167 175 L450 175 L515 0 Z M195 248 L306 548 L310 548 L422 248 L195 248 Z " />
<glyph glyph-name="uni00C2" unicode="&#xc2;" horiz-adv-x="617" d="M356 803 L436 677 L369 677 L308 744 L248 677 L180 677 L260 803 L356 803 Z M515 0 L614 0 L362 630 L255 630 L3 0 L102 0 L167 175 L450 175 L515 0 Z M195 248 L306 548 L310 548 L422 248 L195 248 Z " />
<glyph glyph-name="uni00C3" unicode="&#xc3;" horiz-adv-x="617" d="M176 675 Q176 731 196.5 764.5 Q217 798 261 798 Q281 798 296.5 790 Q312 782 325 772.5 Q338 763 350.5 755 Q363 747 378 747 Q399 747 406.5 757.5 Q414 768 416 795 L475 795 Q475 739 454 705.5 Q433 672 390 672 Q369 672 354 680 Q339 688 325.5 698 Q312 708 300 716 Q288 724 273 724 Q252 724 244.5 713 Q237 702 235 675 L176 675 Z M515 0 L450 175 L167 175 L102 0 L3 0 L255 630 L362 630 L614 0 L515 0 Z M195 248 L422 248 L310 548 L306 548 L195 248 Z " />
<glyph glyph-name="uni00C4" unicode="&#xc4;" horiz-adv-x="617" d="M183 786 L288 786 L288 681 L183 681 L183 786 Z M336 786 L441 786 L441 681 L336 681 L336 786 Z M515 0 L614 0 L362 630 L255 630 L3 0 L102 0 L167 175 L450 175 L515 0 Z M195 248 L306 548 L310 548 L422 248 L195 248 Z " />
<glyph glyph-name="uni00C5" unicode="&#xc5;" horiz-adv-x="617" d="M310 873 Q350 873 377 846.5 Q404 820 404 781 Q404 736 374.5 713 Q345 690 310 690 Q275 690 245.5 712.5 Q216 735 216 781 Q216 820 243.5 846.5 Q271 873 310 873 Z M357 781 Q357 803 343.5 817 Q330 831 310 831 Q290 831 277 817 Q264 803 264 781 Q264 759 277 745 Q290 731 310 731 Q331 731 344 745 Q357 759 357 781 Z M515 0 L450 175 L167 175 L102 0 L3 0 L255 630 L362 630 L614 0 L515 0 Z M195 248 L422 248 L310 548 L306 548 L195 248 Z " />
<glyph glyph-name="uni00C6" unicode="&#xc6;" horiz-adv-x="943" d="M551 76 L551 283 L857 283 L857 359 L551 359 L551 554 L899 554 L899 630 L437 630 L6 0 L118 0 L235 175 L459 175 L459 0 L910 0 L910 76 L551 76 Z M277 250 L459 523 L459 250 L277 250 Z " />
<glyph glyph-name="uni00C7" unicode="&#xc7;" horiz-adv-x="663" d="M339 67 Q416 67 467.5 106.5 Q519 146 541 216 L632 192 Q607 101 535.5 46.5 Q464 -8 363 -12 L345 -37 Q360 -34 374 -34 Q406 -34 429 -49.5 Q452 -65 454 -100 Q454 -122 442.5 -137 Q431 -152 413.5 -160.5 Q396 -169 375.5 -172.5 Q355 -176 337 -176 Q299 -176 270.5 -163.5 Q242 -151 226 -138 L247 -100 Q267 -114 290 -122.5 Q313 -131 335 -131 Q351 -131 366 -126 Q381 -121 381 -105 Q381 -89 370 -83 Q360 -76 345 -76 Q334 -76 322.5 -79 Q311 -82 301 -87 L275 -74 L317 -11 Q261 -6 208 17 Q155 40 114.5 81 Q74 122 49.5 180.5 Q25 239 25 314 Q25 395 52.5 456.5 Q80 518 126 559 Q172 600 230 620.5 Q288 641 348 641 Q455 641 530.5 586 Q606 531 632 437 L541 413 Q520 484 468 522.5 Q416 561 339 561 Q237 561 180 495.5 Q123 430 123 315 Q123 200 180 133.5 Q237 67 339 67 Z " />
<glyph glyph-name="uni00C8" unicode="&#xc8;" horiz-adv-x="539" d="M257 677 L160 803 L266 803 L320 677 L257 677 Z M147 76 L147 283 L453 283 L453 359 L147 359 L147 554 L495 554 L495 630 L55 630 L55 0 L506 0 L506 76 L147 76 Z " />
<glyph glyph-name="uni00C9" unicode="&#xc9;" horiz-adv-x="539" d="M242 677 L296 803 L401 803 L304 677 L242 677 Z M147 76 L147 283 L453 283 L453 359 L147 359 L147 554 L495 554 L495 630 L55 630 L55 0 L506 0 L506 76 L147 76 Z " />
<glyph glyph-name="uni00CA" unicode="&#xca;" horiz-adv-x="539" d="M329 803 L409 677 L341 677 L281 744 L220 677 L153 677 L233 803 L329 803 Z M147 76 L147 283 L453 283 L453 359 L147 359 L147 554 L495 554 L495 630 L55 630 L55 0 L506 0 L506 76 L147 76 Z " />
<glyph glyph-name="uni00CB" unicode="&#xcb;" horiz-adv-x="539" d="M152 681 L257 681 L257 786 L152 786 L152 681 Z M304 681 L409 681 L409 786 L305 786 L304 681 Z M147 76 L147 283 L453 283 L453 359 L147 359 L147 554 L495 554 L495 630 L55 630 L55 0 L506 0 L506 76 L147 76 Z " />
<glyph glyph-name="uni00CC" unicode="&#xcc;" horiz-adv-x="212" d="M76 677 L-21 803 L85 803 L139 677 L76 677 Z M157 0 L65 0 L65 630 L157 630 L157 0 Z " />
<glyph glyph-name="uni00CD" unicode="&#xcd;" horiz-adv-x="208" d="M70 677 L124 803 L229 803 L132 677 L70 677 Z M147 0 L55 0 L55 630 L147 630 L147 0 Z " />
<glyph glyph-name="uni00CE" unicode="&#xce;" horiz-adv-x="209" d="M150 803 L230 677 L163 677 L102 744 L41 677 L-26 677 L54 803 L150 803 Z M148 0 L56 0 L56 630 L148 630 L148 0 Z " />
<glyph glyph-name="uni00CF" unicode="&#xcf;" horiz-adv-x="241" d="M-18 681 L87 681 L87 786 L-18 786 L-18 681 Z M135 681 L239 681 L239 786 L135 786 L135 681 Z M157 0 L65 0 L65 630 L157 630 L157 0 Z " />
<glyph glyph-name="uni00D0" unicode="&#xd0;" horiz-adv-x="653" d="M305 630 Q379 630 439 608.5 Q499 587 541 546.5 Q583 506 605.5 447.5 Q628 389 628 315 Q628 241 605.5 182.5 Q583 124 541 83.5 Q499 43 439 21.5 Q379 0 305 0 L74 0 L74 285 L11 285 L11 361 L74 361 L74 630 L305 630 Z M307 76 Q417 75 475 137.5 Q533 200 533 315 Q533 430 475 492 Q417 554 307 554 L166 554 L166 361 L340 361 L340 285 L166 285 L166 76 L307 76 Z " />
<glyph glyph-name="uni00D1" unicode="&#xd1;" horiz-adv-x="629" d="M180 675 Q180 731 200.5 764.5 Q221 798 265 798 Q285 798 300.5 790 Q316 782 329 772.5 Q342 763 354.5 755 Q367 747 382 747 Q403 747 410.5 757.5 Q418 768 420 795 L479 795 Q479 739 458 705.5 Q437 672 394 672 Q373 672 357.5 680 Q342 688 329 698 Q316 708 303.5 716 Q291 724 276 724 Q255 724 247.5 713 Q240 702 238 675 L180 675 Z M482 630 L575 630 L575 0 L428 0 L151 539 L147 539 L147 0 L55 0 L55 630 L200 630 L478 90 L482 90 L482 630 Z " />
<glyph glyph-name="uni00D2" unicode="&#xd2;" horiz-adv-x="686" d="M312 677 L366 803 L471 803 L374 677 L312 677 Z M344 642 Q411 642 468.5 617 Q526 592 568.5 548 Q611 504 635.5 444 Q660 384 660 314 Q660 245 635.5 185 Q611 125 568.5 81.5 Q526 38 468.5 13 Q411 -12 344 -12 Q273 -12 214.5 13 Q156 38 114 81.5 Q72 125 49 185 Q26 245 26 314 Q26 384 49 444 Q72 504 114 548 Q156 592 214.5 617 Q273 642 344 642 Z M344 68 Q395 68 436 86 Q477 104 505.5 136.5 Q534 169 549.5 214.5 Q565 260 565 314 Q565 368 549.5 413.5 Q534 459 505.5 492 Q477 525 436 543.5 Q395 562 344 562 Q288 562 246 543.5 Q204 525 176.5 492 Q149 459 135 413.5 Q121 368 121 314 Q121 260 135 214.5 Q149 169 176.5 136.5 Q204 104 246 86 Q288 68 344 68 Z " />
<glyph glyph-name="uni00D3" unicode="&#xd3;" horiz-adv-x="686" d="M319 677 L222 803 L327 803 L381 677 L319 677 Z M344 642 Q411 642 468.5 617 Q526 592 568.5 548 Q611 504 635.5 444 Q660 384 660 314 Q660 245 635.5 185 Q611 125 568.5 81.5 Q526 38 468.5 13 Q411 -12 344 -12 Q273 -12 214.5 13 Q156 38 114 81.5 Q72 125 49 185 Q26 245 26 314 Q26 384 49 444 Q72 504 114 548 Q156 592 214.5 617 Q273 642 344 642 Z M344 68 Q395 68 436 86 Q477 104 505.5 136.5 Q534 169 549.5 214.5 Q565 260 565 314 Q565 368 549.5 413.5 Q534 459 505.5 492 Q477 525 436 543.5 Q395 562 344 562 Q288 562 246 543.5 Q204 525 176.5 492 Q149 459 135 413.5 Q121 368 121 314 Q121 260 135 214.5 Q149 169 176.5 136.5 Q204 104 246 86 Q288 68 344 68 Z " />
<glyph glyph-name="uni00D4" unicode="&#xd4;" horiz-adv-x="686" d="M391 803 L471 677 L404 677 L343 744 L282 677 L215 677 L295 803 L391 803 Z M344 642 Q411 642 468.5 617 Q526 592 568.5 548 Q611 504 635.5 444 Q660 384 660 314 Q660 245 635.5 185 Q611 125 568.5 81.5 Q526 38 468.5 13 Q411 -12 344 -12 Q273 -12 214.5 13 Q156 38 114 81.5 Q72 125 49 185 Q26 245 26 314 Q26 384 49 444 Q72 504 114 548 Q156 592 214.5 617 Q273 642 344 642 Z M344 68 Q395 68 436 86 Q477 104 505.5 136.5 Q534 169 549.5 214.5 Q565 260 565 314 Q565 368 549.5 413.5 Q534 459 505.5 492 Q477 525 436 543.5 Q395 562 344 562 Q288 562 246 543.5 Q204 525 176.5 492 Q149 459 135 413.5 Q121 368 121 314 Q121 260 135 214.5 Q149 169 176.5 136.5 Q204 104 246 86 Q288 68 344 68 Z " />
<glyph glyph-name="uni00D5" unicode="&#xd5;" horiz-adv-x="686" d="M193 675 Q193 731 213.5 764.5 Q234 798 278 798 Q298 798 313.5 790 Q329 782 342 772.5 Q355 763 367 755 Q379 747 394 747 Q415 747 422.5 757.5 Q430 768 432 795 L492 795 Q492 739 471 705.5 Q450 672 407 672 Q386 672 370.5 680 Q355 688 342 698 Q329 708 316.5 716 Q304 724 289 724 Q268 724 260.5 713 Q253 702 251 675 L193 675 Z M344 642 Q411 642 468.5 617 Q526 592 568.5 548 Q611 504 635.5 444 Q660 384 660 314 Q660 245 635.5 185 Q611 125 568.5 81.5 Q526 38 468.5 13 Q411 -12 344 -12 Q273 -12 214.5 13 Q156 38 114 81.5 Q72 125 49 185 Q26 245 26 314 Q26 384 49 444 Q72 504 114 548 Q156 592 214.5 617 Q273 642 344 642 Z M344 68 Q395 68 436 86 Q477 104 505.5 136.5 Q534 169 549.5 214.5 Q565 260 565 314 Q565 368 549.5 413.5 Q534 459 505.5 492 Q477 525 436 543.5 Q395 562 344 562 Q288 562 246 543.5 Q204 525 176.5 492 Q149 459 135 413.5 Q121 368 121 314 Q121 260 135 214.5 Q149 169 176.5 136.5 Q204 104 246 86 Q288 68 344 68 Z " />
<glyph glyph-name="uni00D6" unicode="&#xd6;" horiz-adv-x="686" d="M214 782 L319 782 L319 677 L214 677 L214 782 Z M367 782 L472 782 L472 677 L367 677 L367 782 Z M344 642 Q411 642 468.5 617 Q526 592 568.5 548 Q611 504 635.5 444 Q660 384 660 314 Q660 245 635.5 185 Q611 125 568.5 81.5 Q526 38 468.5 13 Q411 -12 344 -12 Q273 -12 214.5 13 Q156 38 114 81.5 Q72 125 49 185 Q26 245 26 314 Q26 384 49 444 Q72 504 114 548 Q156 592 214.5 617 Q273 642 344 642 Z M344 68 Q395 68 436 86 Q477 104 505.5 136.5 Q534 169 549.5 214.5 Q565 260 565 314 Q565 368 549.5 413.5 Q534 459 505.5 492 Q477 525 436 543.5 Q395 562 344 562 Q288 562 246 543.5 Q204 525 176.5 492 Q149 459 135 413.5 Q121 368 121 314 Q121 260 135 214.5 Q149 169 176.5 136.5 Q204 104 246 86 Q288 68 344 68 Z " />
<glyph glyph-name="uni00D7" unicode="&#xd7;" horiz-adv-x="506" d="M461 456 L406 510 L253 357 L99 510 L45 456 L198 303 L45 149 L99 95 L253 248 L406 95 L461 149 L307 303 L461 456 Z " />
<glyph glyph-name="uni00D8" unicode="&#xd8;" horiz-adv-x="686" d="M571 545 Q613 501 636.5 442 Q660 383 660 314 Q660 245 636 185 Q612 125 569 81.5 Q526 38 468.5 13 Q411 -12 344 -12 Q290 -12 243.5 2.5 Q197 17 159 43 L98 -32 L49 5 L113 83 Q71 127 48.5 186 Q26 245 26 314 Q26 384 49 444 Q72 504 114 548 Q156 592 214.5 617 Q273 642 344 642 Q395 642 441 627 Q487 612 525 585 L588 662 L637 625 L571 545 Z M121 314 Q121 264 132.5 222.5 Q144 181 167 149 L473 522 Q447 541 414.5 551.5 Q382 562 344 562 Q288 562 246 543.5 Q204 525 176.5 492 Q149 459 135 413.5 Q121 368 121 314 Z M344 68 Q395 68 436 86 Q477 104 505.5 136.5 Q534 169 549.5 214.5 Q565 260 565 314 Q565 414 516 478 L210 106 Q263 68 344 68 Z " />
<glyph glyph-name="uni00D9" unicode="&#xd9;" horiz-adv-x="611" d="M277 677 L180 803 L286 803 L340 677 L277 677 Z M561 630 L561 240 Q561 171 541 123 Q521 75 486.5 45 Q452 15 405 1.5 Q358 -12 305 -12 Q252 -12 205.5 1.5 Q159 15 124.5 45 Q90 75 70 123 Q50 171 50 240 L50 630 L142 630 L142 264 Q142 162 182 115 Q222 68 305 68 Q388 68 428.5 115 Q469 162 469 263 L469 630 L561 630 Z " />
<glyph glyph-name="uni00DA" unicode="&#xda;" horiz-adv-x="611" d="M271 677 L325 803 L431 803 L334 677 L271 677 Z M561 630 L561 240 Q561 171 541 123 Q521 75 486.5 45 Q452 15 405 1.5 Q358 -12 305 -12 Q252 -12 205.5 1.5 Q159 15 124.5 45 Q90 75 70 123 Q50 171 50 240 L50 630 L142 630 L142 264 Q142 162 182 115 Q222 68 305 68 Q388 68 428.5 115 Q469 162 469 263 L469 630 L561 630 Z " />
<glyph glyph-name="uni00DB" unicode="&#xdb;" horiz-adv-x="611" d="M353 803 L433 677 L366 677 L305 744 L245 677 L177 677 L257 803 L353 803 Z M561 630 L561 240 Q561 171 541 123 Q521 75 486.5 45 Q452 15 405 1.5 Q358 -12 305 -12 Q252 -12 205.5 1.5 Q159 15 124.5 45 Q90 75 70 123 Q50 171 50 240 L50 630 L142 630 L142 264 Q142 162 182 115 Q222 68 305 68 Q388 68 428.5 115 Q469 162 469 263 L469 630 L561 630 Z " />
<glyph glyph-name="uni00DC" unicode="&#xdc;" horiz-adv-x="611" d="M561 630 L561 240 Q561 171 541 123 Q521 75 486.5 45 Q452 15 405 1.5 Q358 -12 305 -12 Q252 -12 205.5 1.5 Q159 15 124.5 45 Q90 75 70 123 Q50 171 50 240 L50 630 L142 630 L142 264 Q142 162 182 115 Q222 68 305 68 Q388 68 428.5 115 Q469 162 469 263 L469 630 L561 630 Z M180 786 L285 786 L285 681 L180 681 L180 786 Z M333 786 L438 786 L438 681 L333 681 L333 786 Z " />
<glyph glyph-name="uni00DD" unicode="&#xdd;" horiz-adv-x="586" d="M265 677 L319 803 L425 803 L328 677 L265 677 Z M477 629 L293 328 L109 629 L6 629 L247 249 L247 0 L339 0 L339 249 L580 629 L477 629 Z " />
<glyph glyph-name="uni00DE" unicode="&#xde;" horiz-adv-x="543" d="M314 528 Q411 528 470 473 Q529 418 529 324 Q529 230 470 176.5 Q411 123 314 123 L147 123 L147 0 L55 0 L55 630 L147 630 L147 528 L314 528 Z M309 199 Q369 199 400 231 Q431 263 431 325 Q431 386 400 419 Q369 452 310 452 L147 452 L147 198 L309 199 Z " />
<glyph glyph-name="uni00DF" unicode="&#xdf;" horiz-adv-x="459" d="M432 178 Q432 130 416 94.5 Q400 59 371.5 35.5 Q343 12 305 0 Q267 -12 224 -12 Q216 -12 208 -12 Q200 -12 193 -11 L193 70 Q200 69 207 68.5 Q214 68 220 68 Q272 68 303 91.5 Q334 115 334 170 Q335 193 328.5 214 Q322 235 308 248 Q289 266 265 271.5 Q241 277 216 277 L215 277 Q208 277 203 276.5 Q198 276 193 275 L193 367 Q208 364 225 364 Q316 365 318 469 Q319 510 292.5 536 Q266 562 225 562 Q177 562 160 535 Q143 508 143 463 L143 0 L51 0 L51 461 Q51 543 100 592.5 Q149 642 231 642 Q271 642 305 629 Q339 616 363.5 592.5 Q388 569 402 535.5 Q416 502 416 461 Q417 416 401 380.5 Q385 345 355 324 Q393 299 412.5 261.5 Q432 224 432 178 Z " />
<glyph glyph-name="uni00E0" unicode="&#xe0;" horiz-adv-x="451" d="M199 504 L102 630 L207 630 L261 504 L199 504 Z M395 77 Q395 62 403.5 57.5 Q412 53 423 53 Q430 53 438 55 Q442 55 445 56 L445 -1 Q431 -8 418 -10 Q405 -12 394 -12 Q356 -12 337 8 Q318 28 310 47 Q293 30 260.5 9 Q228 -12 180 -12 Q141 -12 112 -0.5 Q83 11 64 29.5 Q45 48 36 71 Q27 94 27 117 Q27 159 43 184 Q59 209 84.5 224 Q110 239 141 246.5 Q172 254 202 259 Q244 267 274.5 276.5 Q305 286 305 315 Q305 342 285 356.5 Q265 371 230 373 Q198 373 171 359 Q144 345 136 307 L46 316 Q48 327 55.5 349 Q63 371 82.5 393 Q102 415 137 431 Q172 447 229 447 Q264 447 294 439 Q324 431 346.5 414 Q369 397 382 370 Q395 343 395 305 L395 77 Z M305 229 Q288 222 260.5 214.5 Q233 207 215 202 Q200 199 183 194 Q166 189 152 181 Q138 173 128.5 160 Q119 147 119 128 Q119 94 141 80 Q163 66 194 66 Q239 66 272 91.5 Q305 117 305 165 L305 229 Z " />
<glyph glyph-name="uni00E1" unicode="&#xe1;" horiz-adv-x="451" d="M183 504 L237 630 L343 630 L246 504 L183 504 Z M395 77 Q395 62 403.5 57.5 Q412 53 423 53 Q430 53 438 55 Q442 55 445 56 L445 -1 Q431 -8 418 -10 Q405 -12 394 -12 Q356 -12 337 8 Q318 28 310 47 Q293 30 260.5 9 Q228 -12 180 -12 Q141 -12 112 -0.5 Q83 11 64 29.5 Q45 48 36 71 Q27 94 27 117 Q27 159 43 184 Q59 209 84.5 224 Q110 239 141 246.5 Q172 254 202 259 Q244 267 274.5 276.5 Q305 286 305 315 Q305 342 285 356.5 Q265 371 230 373 Q198 373 171 359 Q144 345 136 307 L46 316 Q48 327 55.5 349 Q63 371 82.5 393 Q102 415 137 431 Q172 447 229 447 Q264 447 294 439 Q324 431 346.5 414 Q369 397 382 370 Q395 343 395 305 L395 77 Z M305 229 Q288 222 260.5 214.5 Q233 207 215 202 Q200 199 183 194 Q166 189 152 181 Q138 173 128.5 160 Q119 147 119 128 Q119 94 141 80 Q163 66 194 66 Q239 66 272 91.5 Q305 117 305 165 L305 229 Z " />
<glyph glyph-name="uni00E2" unicode="&#xe2;" horiz-adv-x="451" d="M283 630 L363 504 L295 504 L235 571 L174 504 L107 504 L187 630 L283 630 Z M395 77 Q395 62 403.5 57.5 Q412 53 423 53 Q430 53 438 55 Q442 55 445 56 L445 -1 Q431 -8 418 -10 Q405 -12 394 -12 Q356 -12 337 8 Q318 28 310 47 Q293 30 260.5 9 Q228 -12 180 -12 Q141 -12 112 -0.5 Q83 11 64 29.5 Q45 48 36 71 Q27 94 27 117 Q27 159 43 184 Q59 209 84.5 224 Q110 239 141 246.5 Q172 254 202 259 Q244 267 274.5 276.5 Q305 286 305 315 Q305 342 285 356.5 Q265 371 230 373 Q198 373 171 359 Q144 345 136 307 L46 316 Q48 327 55.5 349 Q63 371 82.5 393 Q102 415 137 431 Q172 447 229 447 Q264 447 294 439 Q324 431 346.5 414 Q369 397 382 370 Q395 343 395 305 L395 77 Z M305 229 Q288 222 260.5 214.5 Q233 207 215 202 Q200 199 183 194 Q166 189 152 181 Q138 173 128.5 160 Q119 147 119 128 Q119 94 141 80 Q163 66 194 66 Q239 66 272 91.5 Q305 117 305 165 L305 229 Z " />
<glyph glyph-name="uni00E3" unicode="&#xe3;" horiz-adv-x="443" d="M72 507 Q72 563 92.5 596.5 Q113 630 157 630 Q177 630 192.5 622 Q208 614 221 604 Q234 594 246.5 586 Q259 578 274 578 Q295 578 302.5 589 Q310 600 312 627 L371 627 Q371 571 350 537.5 Q329 504 286 504 Q265 504 249.5 512 Q234 520 221 529.5 Q208 539 195.5 547 Q183 555 168 555 Q147 555 139.5 544.5 Q132 534 130 507 L72 507 Z M395 77 Q395 62 403.5 57.5 Q412 53 423 53 Q430 53 438 55 Q442 55 445 56 L445 -1 Q431 -8 418 -10 Q405 -12 394 -12 Q356 -12 337 8 Q318 28 310 47 Q293 30 260.5 9 Q228 -12 180 -12 Q141 -12 112 -0.5 Q83 11 64 29.5 Q45 48 36 71 Q27 94 27 117 Q27 159 43 184 Q59 209 84.5 224 Q110 239 141 246.5 Q172 254 202 259 Q244 267 274.5 276.5 Q305 286 305 315 Q305 342 285 356.5 Q265 371 230 373 Q198 373 171 359 Q144 345 136 307 L46 316 Q48 327 55.5 349 Q63 371 82.5 393 Q102 415 137 431 Q172 447 229 447 Q264 447 294 439 Q324 431 346.5 414 Q369 397 382 370 Q395 343 395 305 L395 77 Z M305 229 Q288 222 260.5 214.5 Q233 207 215 202 Q200 199 183 194 Q166 189 152 181 Q138 173 128.5 160 Q119 147 119 128 Q119 94 141 80 Q163 66 194 66 Q239 66 272 91.5 Q305 117 305 165 L305 229 Z " />
<glyph glyph-name="uni00E4" unicode="&#xe4;" horiz-adv-x="451" d="M94 633 L199 633 L199 528 L94 528 L94 633 Z M247 633 L352 633 L352 528 L247 528 L247 633 Z M395 77 Q395 62 403.5 57.5 Q412 53 423 53 Q430 53 438 55 Q442 55 445 56 L445 -1 Q431 -8 418 -10 Q405 -12 394 -12 Q356 -12 337 8 Q318 28 310 47 Q293 30 260.5 9 Q228 -12 180 -12 Q141 -12 112 -0.5 Q83 11 64 29.5 Q45 48 36 71 Q27 94 27 117 Q27 159 43 184 Q59 209 84.5 224 Q110 239 141 246.5 Q172 254 202 259 Q244 267 274.5 276.5 Q305 286 305 315 Q305 342 285 356.5 Q265 371 230 373 Q198 373 171 359 Q144 345 136 307 L46 316 Q48 327 55.5 349 Q63 371 82.5 393 Q102 415 137 431 Q172 447 229 447 Q264 447 294 439 Q324 431 346.5 414 Q369 397 382 370 Q395 343 395 305 L395 77 Z M305 229 Q288 222 260.5 214.5 Q233 207 215 202 Q200 199 183 194 Q166 189 152 181 Q138 173 128.5 160 Q119 147 119 128 Q119 94 141 80 Q163 66 194 66 Q239 66 272 91.5 Q305 117 305 165 L305 229 Z " />
<glyph glyph-name="uni00E5" unicode="&#xe5;" horiz-adv-x="451" d="M216 685 Q256 685 283.5 658 Q311 631 311 593 Q311 554 283.5 527.5 Q256 501 216 501 Q177 501 150 527.5 Q123 554 123 593 Q123 631 150 658 Q177 685 216 685 Z M263 593 Q263 615 250 628.5 Q237 642 216 642 Q196 642 183 628.5 Q170 615 170 593 Q170 571 183 557 Q196 543 216 543 Q237 543 250 557 Q263 571 263 593 Z M395 77 Q395 62 403.5 57.5 Q412 53 423 53 Q430 53 438 55 Q442 55 445 56 L445 -1 Q431 -8 418 -10 Q405 -12 394 -12 Q356 -12 337 8 Q318 28 310 47 Q293 30 260.5 9 Q228 -12 180 -12 Q141 -12 112 -0.5 Q83 11 64 29.5 Q45 48 36 71 Q27 94 27 117 Q27 159 43 184 Q59 209 84.5 224 Q110 239 141 246.5 Q172 254 202 259 Q244 267 274.5 276.5 Q305 286 305 315 Q305 342 285 356.5 Q265 371 230 373 Q198 373 171 359 Q144 345 136 307 L46 316 Q48 327 55.5 349 Q63 371 82.5 393 Q102 415 137 431 Q172 447 229 447 Q264 447 294 439 Q324 431 346.5 414 Q369 397 382 370 Q395 343 395 305 L395 77 Z M305 165 L305 229 Q288 222 260.5 214.5 Q233 207 215 202 Q200 199 183 194 Q166 189 152 181 Q138 173 128.5 160 Q119 147 119 128 Q119 94 141 80 Q163 66 194 66 Q239 66 272 91.5 Q305 117 305 165 Z " />
<glyph glyph-name="uni00E6" unicode="&#xe6;" horiz-adv-x="762" d="M533 60 Q576 60 608 80 Q640 100 657 139 L736 120 Q713 58 657 24 Q601 -10 531 -10 Q467 -10 419 13.5 Q371 37 342 81 Q329 55 307 35 Q286 16 255.5 2 Q225 -12 178 -12 Q139 -12 110 -0.5 Q81 11 62 29.5 Q43 48 34 71 Q25 94 25 117 Q25 160 42 185.5 Q59 211 85.5 226 Q112 241 144 248 Q176 255 206 260 Q246 267 274.5 277 Q303 287 303 315 Q303 341 283 356 Q263 371 228 372 Q196 372 169 358.5 Q142 345 134 307 L44 316 Q46 327 53.5 349 Q61 371 80.5 393 Q100 415 135 431 Q170 447 227 447 Q267 447 306.5 434.5 Q346 422 370 388 Q404 422 444 434.5 Q484 447 530 447 Q574 447 611.5 431 Q649 415 676.5 387 Q704 359 720 320 Q736 281 736 236 L736 198 L396 198 Q403 135 438 97.5 Q473 60 533 60 Z M521 376 Q463 376 434 342 Q405 308 398 254 L644 254 Q637 306 607.5 341 Q578 376 521 376 Z M303 165 L303 229 Q286 222 258.5 214 Q231 206 213 202 Q198 198 181 193.5 Q164 189 150 180.5 Q136 172 126.5 159.5 Q117 147 117 128 Q117 94 139 80 Q161 66 192 66 Q237 66 270 91.5 Q303 117 303 165 Z " />
<glyph glyph-name="uni00E7" unicode="&#xe7;" horiz-adv-x="478" d="M246 62 Q292 62 323 86 Q354 110 367 155 L453 133 Q435 65 383 28 Q331 -9 263 -12 L244 -37 Q259 -34 273 -34 Q304 -34 328.5 -49.5 Q353 -65 353 -100 Q353 -123 341.5 -138 Q330 -153 312.5 -161.5 Q295 -170 274.5 -173.5 Q254 -177 236 -177 Q199 -177 170 -164.5 Q141 -152 125 -138 L147 -100 Q166 -115 189 -123.5 Q212 -132 234 -132 Q250 -132 265.5 -127 Q281 -122 281 -105 Q281 -89 269.5 -83.5 Q258 -78 245 -78 Q223 -78 201 -88 L174 -75 L218 -10 Q176 -4 140.5 15 Q105 34 79.5 64 Q54 94 39.5 133 Q25 172 25 217 Q25 267 42 309 Q59 351 89 381.5 Q119 412 160.5 429.5 Q202 447 252 447 Q323 447 378 409.5 Q433 372 453 302 L367 278 Q354 323 323 348 Q292 373 246 373 Q186 373 151.5 331.5 Q117 290 117 218 Q117 146 151.5 104 Q186 62 246 62 Z " />
<glyph glyph-name="uni00E8" unicode="&#xe8;" horiz-adv-x="482" d="M227 504 L130 630 L236 630 L290 504 L227 504 Z M254 58 Q297 58 329 78.5 Q361 99 377 138 L457 118 Q434 56 378 22 Q322 -12 252 -12 Q145 -12 84 52.5 Q23 117 25 227 Q29 327 90 386 Q151 445 251 445 Q295 445 332.5 429 Q370 413 397.5 385 Q425 357 441 318.5 Q457 280 457 234 L457 196 L117 196 Q124 133 159 95.5 Q194 58 254 58 Z M242 375 Q184 375 155 341 Q126 307 119 253 L365 253 Q358 305 328.5 340 Q299 375 242 375 Z " />
<glyph glyph-name="uni00E9" unicode="&#xe9;" horiz-adv-x="482" d="M205 504 L259 630 L365 630 L268 504 L205 504 Z M254 58 Q297 58 329 78.5 Q361 99 377 138 L457 118 Q434 56 378 22 Q322 -12 252 -12 Q145 -12 84 52.5 Q23 117 25 227 Q29 327 90 386 Q151 445 251 445 Q295 445 332.5 429 Q370 413 397.5 385 Q425 357 441 318.5 Q457 280 457 234 L457 196 L117 196 Q124 133 159 95.5 Q194 58 254 58 Z M242 375 Q184 375 155 341 Q126 307 119 253 L365 253 Q358 305 328.5 340 Q299 375 242 375 Z " />
<glyph glyph-name="uni00EA" unicode="&#xea;" horiz-adv-x="482" d="M288 630 L368 504 L300 504 L240 571 L179 504 L112 504 L192 630 L288 630 Z M254 58 Q297 58 329 78.5 Q361 99 377 138 L457 118 Q434 56 378 22 Q322 -12 252 -12 Q145 -12 84 52.5 Q23 117 25 227 Q29 327 90 386 Q151 445 251 445 Q295 445 332.5 429 Q370 413 397.5 385 Q425 357 441 318.5 Q457 280 457 234 L457 196 L117 196 Q124 133 159 95.5 Q194 58 254 58 Z M242 375 Q184 375 155 341 Q126 307 119 253 L365 253 Q358 305 328.5 340 Q299 375 242 375 Z " />
<glyph glyph-name="uni00EB" unicode="&#xeb;" horiz-adv-x="482" d="M115 633 L220 633 L220 528 L115 528 L115 633 Z M268 633 L373 633 L373 528 L268 528 L268 633 Z M254 58 Q297 58 329 78.5 Q361 99 377 138 L457 118 Q434 56 378 22 Q322 -12 252 -12 Q145 -12 84 52.5 Q23 117 25 227 Q29 327 90 386 Q151 445 251 445 Q295 445 332.5 429 Q370 413 397.5 385 Q425 357 441 318.5 Q457 280 457 234 L457 196 L117 196 Q124 133 159 95.5 Q194 58 254 58 Z M242 375 Q184 375 155 341 Q126 307 119 253 L365 253 Q358 305 328.5 340 Q299 375 242 375 Z " />
<glyph glyph-name="uni00EC" unicode="&#xec;" horiz-adv-x="196" d="M68 504 L-29 630 L76 630 L130 504 L68 504 Z M146 436 L56 436 L56 0 L146 0 L146 436 Z " />
<glyph glyph-name="uni00ED" unicode="&#xed;" horiz-adv-x="195" d="M64 504 L118 630 L224 630 L127 504 L64 504 Z M140 436 L50 436 L50 0 L140 0 L140 436 Z " />
<glyph glyph-name="uni00EE" unicode="&#xee;" horiz-adv-x="188" d="M142 630 L222 504 L155 504 L94 571 L33 504 L-34 504 L46 630 L142 630 Z M139 436 L49 436 L49 0 L139 0 L139 436 Z " />
<glyph glyph-name="uni00EF" unicode="&#xef;" horiz-adv-x="207" d="M-25 633 L80 633 L80 528 L-25 528 L-25 633 Z M128 633 L232 633 L232 528 L128 528 L128 633 Z M150 436 L60 436 L60 0 L150 0 L150 436 Z " />
<glyph glyph-name="uni00F0" unicode="&#xf0;" horiz-adv-x="503" d="M355 516 Q389 480 417 435 Q442 394 460 343 Q478 292 478 229 Q478 118 416 53 Q354 -12 249 -12 Q200 -12 158.5 4.5 Q117 21 87.5 50.5 Q58 80 41.5 121.5 Q25 163 25 212 Q25 261 41 302 Q57 343 86 372.5 Q115 402 155 418.5 Q195 435 243 435 Q286 435 307 422 Q328 409 344 401 Q339 408 327.5 419 Q316 430 303.5 441 Q291 452 278.5 463 Q266 474 258 481 L140 438 L109 506 L190 535 Q176 544 164.5 550.5 Q153 557 138 566 L119 578 L196 634 L204 629 Q230 615 251 602.5 Q272 590 293 573 L373 603 L406 536 L355 516 Z M394 213 Q394 291 355.5 335.5 Q317 380 251 380 Q185 380 147 335.5 Q109 291 109 213 Q109 136 147 91.5 Q185 47 251 47 Q317 47 355.5 91.5 Q394 136 394 213 Z " />
<glyph glyph-name="uni00F1" unicode="&#xf1;" horiz-adv-x="481" d="M99 506 Q99 562 119.5 595.5 Q140 629 184 629 Q204 629 219.5 621 Q235 613 248 603 Q261 593 273.5 585 Q286 577 301 577 Q322 577 329.5 588 Q337 599 339 626 L398 626 Q398 570 377 536.5 Q356 503 313 503 Q292 503 276.5 511 Q261 519 248 528.5 Q235 538 222.5 546 Q210 554 195 554 Q174 554 166.5 543.5 Q159 533 157 506 L99 506 Z M275 447 Q356 447 396 398.5 Q436 350 436 275 L436 0 L346 0 L346 265 Q346 315 326 344 Q306 373 258 373 Q236 373 215 364.5 Q194 356 177.5 341 Q161 326 151 304.5 Q141 283 141 256 L141 0 L50 0 L50 436 L127 436 L141 357 Q156 395 194.5 421 Q233 447 275 447 Z " />
<glyph glyph-name="uni00F2" unicode="&#xf2;" horiz-adv-x="495" d="M225 504 L128 630 L234 630 L288 504 L225 504 Z M249 447 Q296 447 336.5 430.5 Q377 414 406.5 384 Q436 354 453 311.5 Q470 269 470 217 Q470 166 453 123.5 Q436 81 406.5 51 Q377 21 336.5 4.5 Q296 -12 249 -12 Q199 -12 157.5 5.5 Q116 23 86.5 54 Q57 85 41 126.5 Q25 168 25 217 Q25 266 41 308 Q57 350 86.5 381 Q116 412 157.5 429.5 Q199 447 249 447 Z M248 62 Q308 62 343 104 Q378 146 378 218 Q378 290 343 331.5 Q308 373 248 373 Q186 373 151.5 331.5 Q117 290 117 218 Q117 146 151.5 104 Q186 62 248 62 Z " />
<glyph glyph-name="uni00F3" unicode="&#xf3;" horiz-adv-x="495" d="M280 504 L218 504 L272 630 L377 630 L280 504 Z M249 447 Q296 447 336.5 430.5 Q377 414 406.5 384 Q436 354 453 311.5 Q470 269 470 217 Q470 166 453 123.5 Q436 81 406.5 51 Q377 21 336.5 4.5 Q296 -12 249 -12 Q199 -12 157.5 5.5 Q116 23 86.5 54 Q57 85 41 126.5 Q25 168 25 217 Q25 266 41 308 Q57 350 86.5 381 Q116 412 157.5 429.5 Q199 447 249 447 Z M248 62 Q308 62 343 104 Q378 146 378 218 Q378 290 343 331.5 Q308 373 248 373 Q186 373 151.5 331.5 Q117 290 117 218 Q117 146 151.5 104 Q186 62 248 62 Z " />
<glyph glyph-name="uni00F4" unicode="&#xf4;" horiz-adv-x="495" d="M296 630 L376 504 L308 504 L248 571 L187 504 L120 504 L200 630 L296 630 Z M249 447 Q296 447 336.5 430.5 Q377 414 406.5 384 Q436 354 453 311.5 Q470 269 470 217 Q470 166 453 123.5 Q436 81 406.5 51 Q377 21 336.5 4.5 Q296 -12 249 -12 Q199 -12 157.5 5.5 Q116 23 86.5 54 Q57 85 41 126.5 Q25 168 25 217 Q25 266 41 308 Q57 350 86.5 381 Q116 412 157.5 429.5 Q199 447 249 447 Z M248 62 Q308 62 343 104 Q378 146 378 218 Q378 290 343 331.5 Q308 373 248 373 Q186 373 151.5 331.5 Q117 290 117 218 Q117 146 151.5 104 Q186 62 248 62 Z " />
<glyph glyph-name="uni00F5" unicode="&#xf5;" horiz-adv-x="495" d="M98 507 Q98 563 118.5 596.5 Q139 630 183 630 Q203 630 218.5 622 Q234 614 247 604 Q260 594 272.5 586 Q285 578 300 578 Q321 578 328.5 589 Q336 600 338 627 L397 627 Q397 571 376 537.5 Q355 504 312 504 Q291 504 275.5 512 Q260 520 247 529.5 Q234 539 221.5 547 Q209 555 194 555 Q173 555 165.5 544.5 Q158 534 156 507 L98 507 Z M249 447 Q296 447 336.5 430.5 Q377 414 406.5 384 Q436 354 453 311.5 Q470 269 470 217 Q470 166 453 123.5 Q436 81 406.5 51 Q377 21 336.5 4.5 Q296 -12 249 -12 Q199 -12 157.5 5.5 Q116 23 86.5 54 Q57 85 41 126.5 Q25 168 25 217 Q25 266 41 308 Q57 350 86.5 381 Q116 412 157.5 429.5 Q199 447 249 447 Z M248 62 Q308 62 343 104 Q378 146 378 218 Q378 290 343 331.5 Q308 373 248 373 Q186 373 151.5 331.5 Q117 290 117 218 Q117 146 151.5 104 Q186 62 248 62 Z " />
<glyph glyph-name="uni00F6" unicode="&#xf6;" horiz-adv-x="495" d="M119 633 L224 633 L224 528 L119 528 L119 633 Z M272 633 L376 633 L376 528 L272 528 L272 633 Z M249 447 Q296 447 336.5 430.5 Q377 414 406.5 384 Q436 354 453 311.5 Q470 269 470 217 Q470 166 453 123.5 Q436 81 406.5 51 Q377 21 336.5 4.5 Q296 -12 249 -12 Q199 -12 157.5 5.5 Q116 23 86.5 54 Q57 85 41 126.5 Q25 168 25 217 Q25 266 41 308 Q57 350 86.5 381 Q116 412 157.5 429.5 Q199 447 249 447 Z M248 62 Q308 62 343 104 Q378 146 378 218 Q378 290 343 331.5 Q308 373 248 373 Q186 373 151.5 331.5 Q117 290 117 218 Q117 146 151.5 104 Q186 62 248 62 Z " />
<glyph glyph-name="uni00F7" unicode="&#xf7;" horiz-adv-x="607" d="M48 342 L550 342 L550 280 L48 280 L48 342 Z M246 567 L351 567 L351 463 L246 463 L246 567 Z M246 159 L351 159 L351 54 L246 54 L246 159 Z " />
<glyph glyph-name="uni00F8" unicode="&#xf8;" horiz-adv-x="499" d="M474 441 L418 373 Q444 344 458 304.5 Q472 265 472 217 Q472 166 455 123.5 Q438 81 408.5 51 Q379 21 338.5 4.5 Q298 -12 251 -12 Q181 -12 128 22 L74 -43 L25 -5 L81 62 Q55 93 41 132 Q27 171 27 217 Q27 266 43 308 Q59 350 88.5 381 Q118 412 159.5 429.5 Q201 447 251 447 Q318 447 372 413 L425 478 L474 441 Z M119 218 Q119 166 137 130 L321 353 Q292 373 250 373 Q188 373 153.5 331.5 Q119 290 119 218 Z M380 218 Q380 269 362 305 L178 82 Q207 62 250 62 Q310 62 345 104 Q380 146 380 218 Z " />
<glyph glyph-name="uni00F9" unicode="&#xf9;" horiz-adv-x="481" d="M252 504 L155 630 L260 630 L314 504 L252 504 Z M207 -12 Q126 -12 85.5 35.5 Q45 83 45 159 L45 436 L136 436 L136 169 Q136 120 156 91 Q176 62 224 62 Q246 62 266.5 70.5 Q287 79 303.5 94 Q320 109 330 130.5 Q340 152 340 179 L340 436 L431 436 L431 0 L354 0 L340 77 Q325 39 287 13.5 Q249 -12 207 -12 Z " />
<glyph glyph-name="uni00FA" unicode="&#xfa;" horiz-adv-x="481" d="M209 504 L263 630 L368 630 L271 504 L209 504 Z M207 -12 Q126 -12 85.5 35.5 Q45 83 45 159 L45 436 L136 436 L136 169 Q136 120 156 91 Q176 62 224 62 Q246 62 266.5 70.5 Q287 79 303.5 94 Q320 109 330 130.5 Q340 152 340 179 L340 436 L431 436 L431 0 L354 0 L340 77 Q325 39 287 13.5 Q249 -12 207 -12 Z " />
<glyph glyph-name="uni00FB" unicode="&#xfb;" horiz-adv-x="481" d="M286 630 L366 504 L299 504 L238 571 L177 504 L110 504 L190 630 L286 630 Z M207 -12 Q126 -12 85.5 35.5 Q45 83 45 159 L45 436 L136 436 L136 169 Q136 120 156 91 Q176 62 224 62 Q246 62 266.5 70.5 Q287 79 303.5 94 Q320 109 330 130.5 Q340 152 340 179 L340 436 L431 436 L431 0 L354 0 L340 77 Q325 39 287 13.5 Q249 -12 207 -12 Z " />
<glyph glyph-name="uni00FC" unicode="&#xfc;" horiz-adv-x="481" d="M109 633 L214 633 L214 528 L109 528 L109 633 Z M262 633 L367 633 L367 528 L262 528 L262 633 Z M207 -12 Q126 -12 85.5 35.5 Q45 83 45 159 L45 436 L136 436 L136 169 Q136 120 156 91 Q176 62 224 62 Q246 62 266.5 70.5 Q287 79 303.5 94 Q320 109 330 130.5 Q340 152 340 179 L340 436 L431 436 L431 0 L354 0 L340 77 Q325 39 287 13.5 Q249 -12 207 -12 Z " />
<glyph glyph-name="uni00FD" unicode="&#xfd;" horiz-adv-x="448" d="M183 504 L237 630 L343 630 L246 504 L183 504 Z M350 436 L445 436 L250 -54 Q238 -85 225.5 -110.5 Q213 -136 195 -153.5 Q177 -171 152.5 -180.5 Q128 -190 91 -190 Q60 -190 28 -181 L28 -112 Q35 -114 44 -115 Q51 -116 60 -117 Q69 -118 78 -118 Q114 -118 134 -102 Q154 -86 171 -43 Q172 -41 174 -35.5 Q176 -30 178 -23 Q181 -11 177 -1 L3 436 L98 436 L222 95 L226 95 L350 436 Z " />
<glyph glyph-name="uni00FE" unicode="&#xfe;" horiz-adv-x="480" d="M278 448 Q315 448 347.5 432.5 Q380 417 404 387.5 Q428 358 441.5 315.5 Q455 273 455 218 Q455 167 443 125 Q431 83 407.5 52.5 Q384 22 351 5 Q318 -12 276 -12 Q228 -12 196 7.5 Q164 27 141 65 L139 65 L139 -173 L50 -173 L50 630 L139 630 L139 366 L141 366 Q161 404 195.5 426 Q230 448 278 448 Z M250 61 Q303 61 333 103 Q363 145 363 218 Q363 291 333 333 Q303 375 250 375 Q197 375 167 333 Q137 291 137 218 Q137 145 167 103 Q197 61 250 61 Z " />
<glyph glyph-name="uni00FF" unicode="&#xff;" horiz-adv-x="448" d="M99 633 L204 633 L204 528 L99 528 L99 633 Z M252 633 L357 633 L357 528 L252 528 L252 633 Z M350 436 L445 436 L250 -54 Q238 -85 225.5 -110.5 Q213 -136 195 -153.5 Q177 -171 152.5 -180.5 Q128 -190 91 -190 Q60 -190 28 -181 L28 -112 Q35 -114 44 -115 Q51 -116 60 -117 Q69 -118 78 -118 Q114 -118 134 -102 Q154 -86 171 -43 Q172 -41 174 -35.5 Q176 -30 178 -23 Q181 -11 177 -1 L3 436 L98 436 L222 95 L226 95 L350 436 Z " />
<glyph glyph-name="uni0100" unicode="&#x100;" horiz-adv-x="617" d="M178 762 L443 762 L443 685 L178 685 L178 762 Z M515 0 L614 0 L362 630 L255 630 L3 0 L102 0 L167 175 L450 175 L515 0 Z M195 248 L306 548 L310 548 L422 248 L195 248 Z " />
<glyph glyph-name="uni0101" unicode="&#x101;" horiz-adv-x="451" d="M77 592 L342 592 L342 515 L77 515 L77 592 Z M395 77 Q395 62 403.5 57.5 Q412 53 423 53 Q430 53 438 55 Q442 55 445 56 L445 -1 Q431 -8 418 -10 Q405 -12 394 -12 Q356 -12 337 8 Q318 28 310 47 Q293 30 260.5 9 Q228 -12 180 -12 Q141 -12 112 -0.5 Q83 11 64 29.5 Q45 48 36 71 Q27 94 27 117 Q27 159 43 184 Q59 209 84.5 224 Q110 239 141 246.5 Q172 254 202 259 Q244 267 274.5 276.5 Q305 286 305 315 Q305 342 285 356.5 Q265 371 230 373 Q198 373 171 359 Q144 345 136 307 L46 316 Q48 327 55.5 349 Q63 371 82.5 393 Q102 415 137 431 Q172 447 229 447 Q264 447 294 439 Q324 431 346.5 414 Q369 397 382 370 Q395 343 395 305 L395 77 Z M305 229 Q288 222 260.5 214.5 Q233 207 215 202 Q200 199 183 194 Q166 189 152 181 Q138 173 128.5 160 Q119 147 119 128 Q119 94 141 80 Q163 66 194 66 Q239 66 272 91.5 Q305 117 305 165 L305 229 Z " />
<glyph glyph-name="uni0102" unicode="&#x102;" horiz-adv-x="617" d="M430 805 Q430 742 399 707.5 Q368 673 310 673 Q253 673 222 707.5 Q191 742 191 805 L254 805 Q254 773 266.5 755 Q279 737 310 737 Q342 737 354.5 755 Q367 773 367 805 L430 805 Z M515 0 L450 175 L167 175 L102 0 L3 0 L255 630 L362 630 L614 0 L515 0 Z M195 248 L422 248 L310 548 L306 548 L195 248 Z " />
<glyph glyph-name="uni0103" unicode="&#x103;" horiz-adv-x="451" d="M335 632 Q335 569 303.5 535 Q272 501 215 501 Q158 501 126.5 535 Q95 569 95 632 L158 632 Q158 600 171 582 Q184 564 215 564 Q246 564 259 582 Q272 600 272 632 L335 632 Z M395 77 Q395 62 403.5 57.5 Q412 53 423 53 Q430 53 438 55 Q442 55 445 56 L445 -1 Q431 -8 418 -10 Q405 -12 394 -12 Q356 -12 337 8 Q318 28 310 47 Q293 30 260.5 9 Q228 -12 180 -12 Q141 -12 112 -0.5 Q83 11 64 29.5 Q45 48 36 71 Q27 94 27 117 Q27 159 43 184 Q59 209 84.5 224 Q110 239 141 246.5 Q172 254 202 259 Q244 267 274.5 276.5 Q305 286 305 315 Q305 342 285 356.5 Q265 371 230 373 Q198 373 171 359 Q144 345 136 307 L46 316 Q48 327 55.5 349 Q63 371 82.5 393 Q102 415 137 431 Q172 447 229 447 Q264 447 294 439 Q324 431 346.5 414 Q369 397 382 370 Q395 343 395 305 L395 77 Z M305 229 Q288 222 260.5 214.5 Q233 207 215 202 Q200 199 183 194 Q166 189 152 181 Q138 173 128.5 160 Q119 147 119 128 Q119 94 141 80 Q163 66 194 66 Q239 66 272 91.5 Q305 117 305 165 L305 229 Z " />
<glyph glyph-name="uni0104" unicode="&#x104;" horiz-adv-x="620" d="M613 -111 L617 -171 Q603 -181 582.5 -187 Q562 -193 541 -193 Q509 -193 484 -177.5 Q459 -162 460 -123 Q460 -86 488.5 -56 Q517 -26 551 0 L516 0 L450 175 L168 175 L102 0 L3 0 L255 630 L363 630 L614 0 Q574 -35 550.5 -62 Q527 -89 529 -108 Q530 -122 537 -128 Q544 -134 555 -134 Q571 -134 588 -126 Q605 -118 613 -111 Z M195 249 L423 249 L311 548 L307 548 L195 249 Z " />
<glyph glyph-name="uni0105" unicode="&#x105;" horiz-adv-x="451" d="M471 -84 L475 -144 Q461 -154 441 -160 Q421 -166 399 -166 Q367 -166 342 -150 Q317 -134 318 -96 Q318 -70 331 -49 Q344 -28 365 -8 Q363 -7 358 -5 Q353 -3 351 -1 Q337 6 327 19 Q321 26 317 33 Q313 40 310 47 Q293 30 260.5 9 Q228 -12 180 -12 Q141 -12 112 -0.5 Q83 11 64 29.5 Q45 48 36 71 Q27 94 27 117 Q27 158 43.5 183.5 Q60 209 86.5 224.5 Q113 240 144.5 247.5 Q176 255 206 261 Q247 269 276 278.5 Q305 288 305 313 Q305 371 230 373 Q198 373 171 359 Q144 345 136 307 L46 316 Q48 327 55.5 349 Q63 371 82.5 393 Q102 415 137 431 Q172 447 229 447 Q264 447 294 439 Q324 431 346.5 414 Q369 397 382 370 Q395 343 395 305 L395 77 Q395 63 403.5 58 Q412 53 423 53 Q430 53 438 55 Q442 55 445 56 L445 -7 Q424 -17 405.5 -37 Q387 -57 387 -81 Q388 -95 395 -100.5 Q402 -106 413 -106 Q429 -106 446 -98 Q463 -90 471 -84 Z M305 165 L305 229 Q288 222 260.5 214.5 Q233 207 215 203 Q200 199 183 194 Q166 189 152 181 Q138 173 128.5 160 Q119 147 119 128 Q119 94 141 80 Q163 66 194 66 Q239 66 272 91.5 Q305 117 305 165 Z " />
<glyph glyph-name="uni0106" unicode="&#x106;" horiz-adv-x="663" d="M296 677 L350 803 L455 803 L358 677 L296 677 Z M339 68 Q416 68 467.5 107.5 Q519 147 541 217 L632 193 Q606 99 530.5 43.5 Q455 -12 348 -12 Q288 -12 230 9 Q172 30 126.5 71.5 Q81 113 53 174 Q25 235 25 315 Q25 396 52.5 457.5 Q80 519 126 560 Q172 601 230 621.5 Q288 642 348 642 Q455 642 530.5 587 Q606 532 632 438 L541 414 Q520 485 468 523.5 Q416 562 339 562 Q237 562 180 496.5 Q123 431 123 316 Q123 201 180 134.5 Q237 68 339 68 Z " />
<glyph glyph-name="uni0107" unicode="&#x107;" horiz-adv-x="477" d="M219 504 L273 630 L378 630 L281 504 L219 504 Z M246 63 Q291 63 322.5 87 Q354 111 367 156 L452 133 Q433 63 378 25.5 Q323 -12 252 -12 Q203 -12 161.5 5 Q120 22 89.5 53 Q59 84 42 126 Q25 168 25 218 Q25 268 41.5 310 Q58 352 88 382.5 Q118 413 160 430.5 Q202 448 252 448 Q323 448 378 410 Q433 372 452 303 L367 279 Q354 324 323 349 Q292 374 246 374 Q185 374 151 332 Q117 290 117 218 Q117 146 151 104.5 Q185 63 246 63 Z " />
<glyph glyph-name="uni0108" unicode="&#x108;" horiz-adv-x="663" d="M376 803 L456 677 L388 677 L328 744 L267 677 L200 677 L280 803 L376 803 Z M339 68 Q416 68 467.5 107.5 Q519 147 541 217 L632 193 Q606 99 530.5 43.5 Q455 -12 348 -12 Q288 -12 230 9 Q172 30 126.5 71.5 Q81 113 53 174 Q25 235 25 315 Q25 396 52.5 457.5 Q80 519 126 560 Q172 601 230 621.5 Q288 642 348 642 Q455 642 530.5 587 Q606 532 632 438 L541 414 Q520 485 468 523.5 Q416 562 339 562 Q237 562 180 496.5 Q123 431 123 316 Q123 201 180 134.5 Q237 68 339 68 Z " />
<glyph glyph-name="uni0109" unicode="&#x109;" horiz-adv-x="477" d="M190 630 L286 630 L366 504 L299 504 L238 570 L178 504 L110 504 L190 630 Z M246 63 Q291 63 322.5 87 Q354 111 367 156 L452 133 Q433 63 378 25.5 Q323 -12 252 -12 Q203 -12 161.5 5 Q120 22 89.5 53 Q59 84 42 126 Q25 168 25 218 Q25 268 41.5 310 Q58 352 88 382.5 Q118 413 160 430.5 Q202 448 252 448 Q323 448 378 410 Q433 372 452 303 L367 279 Q354 324 323 349 Q292 374 246 374 Q185 374 151 332 Q117 290 117 218 Q117 146 151 104.5 Q185 63 246 63 Z " />
<glyph glyph-name="uni010A" unicode="&#x10a;" horiz-adv-x="663" d="M275 681 L275 785 L380 785 L380 681 L275 681 Z M339 68 Q416 68 467.5 107.5 Q519 147 541 217 L632 193 Q606 99 530.5 43.5 Q455 -12 348 -12 Q288 -12 230 9 Q172 30 126.5 71.5 Q81 113 53 174 Q25 235 25 315 Q25 396 52.5 457.5 Q80 519 126 560 Q172 601 230 621.5 Q288 642 348 642 Q455 642 530.5 587 Q606 532 632 438 L541 414 Q520 485 468 523.5 Q416 562 339 562 Q237 562 180 496.5 Q123 431 123 316 Q123 201 180 134.5 Q237 68 339 68 Z " />
<glyph glyph-name="uni010B" unicode="&#x10b;" horiz-adv-x="477" d="M186 633 L291 633 L291 528 L186 528 L186 633 Z M246 63 Q291 63 322.5 87 Q354 111 367 156 L452 133 Q433 63 378 25.5 Q323 -12 252 -12 Q203 -12 161.5 5 Q120 22 89.5 53 Q59 84 42 126 Q25 168 25 218 Q25 268 41.5 310 Q58 352 88 382.5 Q118 413 160 430.5 Q202 448 252 448 Q323 448 378 410 Q433 372 452 303 L367 279 Q354 324 323 349 Q292 374 246 374 Q185 374 151 332 Q117 290 117 218 Q117 146 151 104.5 Q185 63 246 63 Z " />
<glyph glyph-name="uni010C" unicode="&#x10c;" horiz-adv-x="663" d="M280 677 L200 803 L267 803 L328 736 L388 803 L456 803 L376 677 L280 677 Z M339 68 Q416 68 467.5 107.5 Q519 147 541 217 L632 193 Q606 99 530.5 43.5 Q455 -12 348 -12 Q288 -12 230 9 Q172 30 126.5 71.5 Q81 113 53 174 Q25 235 25 315 Q25 396 52.5 457.5 Q80 519 126 560 Q172 601 230 621.5 Q288 642 348 642 Q455 642 530.5 587 Q606 532 632 438 L541 414 Q520 485 468 523.5 Q416 562 339 562 Q237 562 180 496.5 Q123 431 123 316 Q123 201 180 134.5 Q237 68 339 68 Z " />
<glyph glyph-name="uni010D" unicode="&#x10d;" horiz-adv-x="477" d="M190 504 L110 630 L178 630 L238 563 L299 630 L366 630 L286 504 L190 504 Z M246 63 Q291 63 322.5 87 Q354 111 367 156 L452 133 Q433 63 378 25.5 Q323 -12 252 -12 Q203 -12 161.5 5 Q120 22 89.5 53 Q59 84 42 126 Q25 168 25 218 Q25 268 41.5 310 Q58 352 88 382.5 Q118 413 160 430.5 Q202 448 252 448 Q323 448 378 410 Q433 372 452 303 L367 279 Q354 324 323 349 Q292 374 246 374 Q185 374 151 332 Q117 290 117 218 Q117 146 151 104.5 Q185 63 246 63 Z " />
<glyph glyph-name="uni010E" unicode="&#x10e;" horiz-adv-x="639" d="M284 677 L204 803 L271 803 L332 736 L393 803 L460 803 L380 677 L284 677 Z M55 630 L286 630 Q360 630 420 608.5 Q480 587 522 546.5 Q564 506 586.5 447.5 Q609 389 609 315 Q609 241 586.5 182.5 Q564 124 522 83.5 Q480 43 420 21.5 Q360 0 286 0 L55 0 L55 630 Z M147 77 L284 78 Q395 79 453 140 Q511 201 511 316 Q511 431 453 493 Q395 555 284 555 L147 555 L147 77 Z " />
<glyph glyph-name="uni010F" unicode="&#x10f;" horiz-adv-x="458" d="M460 503 L475 629 L580 629 L522 503 L460 503 Z M25 217 Q25 272 39 314.5 Q53 357 77 386.5 Q101 416 133 431.5 Q165 447 202 447 Q250 447 284.5 425 Q319 403 339 365 L341 365 L341 630 L431 630 L431 0 L341 0 L341 65 L339 65 Q316 27 284 7.5 Q252 -12 204 -12 Q162 -12 129 5 Q96 22 72.5 52.5 Q49 83 37 125 Q25 167 25 217 Z M110 217 Q110 153 138 107.5 Q166 62 223 62 Q282 62 312.5 105 Q343 148 343 217 Q343 285 312.5 329 Q282 373 223 373 Q169 373 139.5 329.5 Q110 286 110 217 Z " />
<glyph glyph-name="uni0110" unicode="&#x110;" horiz-adv-x="653" d="M304 630 Q379 630 439 608.5 Q499 587 541 546.5 Q583 506 605.5 447.5 Q628 389 628 315 Q628 241 605.5 182.5 Q583 124 541 83.5 Q499 43 439 21.5 Q379 0 304 0 L74 0 L74 285 L11 285 L11 362 L74 362 L74 630 L304 630 Z M303 77 Q414 78 472 139 Q530 200 530 315 Q530 430 472 492 Q414 554 303 554 L166 554 L166 362 L340 362 L340 285 L166 285 L166 77 L303 77 Z " />
<glyph glyph-name="uni0111" unicode="&#x111;" horiz-adv-x="495" d="M501 556 L501 490 L431 490 L431 0 L341 0 L341 65 L339 65 Q316 27 284 7.5 Q252 -12 204 -12 Q162 -12 129 5 Q96 22 72.5 52.5 Q49 83 37 125 Q25 167 25 217 Q25 272 39 314.5 Q53 357 77 386.5 Q101 416 133 431.5 Q165 447 202 447 Q250 447 284.5 425 Q319 403 339 365 L341 365 L341 490 L211 490 L211 556 L341 556 L341 630 L431 630 L431 556 L501 556 Z M223 62 Q282 62 312.5 105 Q343 148 343 217 Q343 285 312.5 329 Q282 373 223 373 Q169 373 139.5 329.5 Q110 286 110 217 Q110 153 138 107.5 Q166 62 223 62 Z " />
<glyph glyph-name="uni0112" unicode="&#x112;" horiz-adv-x="539" d="M148 685 L413 685 L413 762 L148 762 L148 685 Z M147 76 L147 283 L453 283 L453 359 L147 359 L147 554 L495 554 L495 630 L55 630 L55 0 L506 0 L506 76 L147 76 Z " />
<glyph glyph-name="uni0113" unicode="&#x113;" horiz-adv-x="482" d="M107 592 L372 592 L372 515 L107 515 L107 592 Z M254 58 Q297 58 329 78.5 Q361 99 377 138 L457 118 Q434 56 378 22 Q322 -12 252 -12 Q145 -12 84 52.5 Q23 117 25 227 Q29 327 90 386 Q151 445 251 445 Q295 445 332.5 429 Q370 413 397.5 385 Q425 357 441 318.5 Q457 280 457 234 L457 196 L117 196 Q124 133 159 95.5 Q194 58 254 58 Z M242 375 Q184 375 155 341 Q126 307 119 253 L365 253 Q358 305 328.5 340 Q299 375 242 375 Z " />
<glyph glyph-name="uni0114" unicode="&#x114;" horiz-adv-x="539" d="M337 805 L400 805 Q400 742 369 707.5 Q338 673 281 673 Q223 673 192 707.5 Q161 742 161 805 L224 805 Q224 773 236.5 755 Q249 737 281 737 Q312 737 324.5 755 Q337 773 337 805 Z M147 76 L506 76 L506 0 L55 0 L55 630 L495 630 L495 554 L147 554 L147 359 L453 359 L453 283 L147 283 L147 76 Z " />
<glyph glyph-name="uni0115" unicode="&#x115;" horiz-adv-x="482" d="M355 632 Q355 569 324 535 Q293 501 236 501 Q178 501 147 535 Q116 569 116 632 L179 632 Q179 600 191.5 582 Q204 564 236 564 Q267 564 279.5 582 Q292 600 292 632 L355 632 Z M254 58 Q297 58 329 78.5 Q361 99 377 138 L457 118 Q434 56 378 22 Q322 -12 252 -12 Q145 -12 84 52.5 Q23 117 25 227 Q29 327 90 386 Q151 445 251 445 Q295 445 332.5 429 Q370 413 397.5 385 Q425 357 441 318.5 Q457 280 457 234 L457 196 L117 196 Q124 133 159 95.5 Q194 58 254 58 Z M242 375 Q184 375 155 341 Q126 307 119 253 L365 253 Q358 305 328.5 340 Q299 375 242 375 Z " />
<glyph glyph-name="uni0116" unicode="&#x116;" horiz-adv-x="539" d="M228 681 L333 681 L333 785 L228 785 L228 681 Z M147 76 L147 283 L453 283 L453 359 L147 359 L147 554 L495 554 L495 630 L55 630 L55 0 L506 0 L506 76 L147 76 Z " />
<glyph glyph-name="uni0117" unicode="&#x117;" horiz-adv-x="482" d="M187 633 L292 633 L292 528 L187 528 L187 633 Z M254 58 Q297 58 329 78.5 Q361 99 377 138 L457 118 Q434 56 378 22 Q322 -12 252 -12 Q145 -12 84 52.5 Q23 117 25 227 Q29 327 90 386 Q151 445 251 445 Q295 445 332.5 429 Q370 413 397.5 385 Q425 357 441 318.5 Q457 280 457 234 L457 196 L117 196 Q124 133 159 95.5 Q194 58 254 58 Z M242 375 Q184 375 155 341 Q126 307 119 253 L365 253 Q358 305 328.5 340 Q299 375 242 375 Z " />
<glyph glyph-name="uni0118" unicode="&#x118;" horiz-adv-x="544" d="M147 76 L506 76 L506 0 L467 0 L460 -6 Q415 -45 397.5 -66.5 Q380 -88 380 -109 Q381 -123 388 -128.5 Q395 -134 406 -134 Q422 -134 439 -126 Q456 -118 464 -112 L468 -172 Q454 -182 434 -188 Q414 -194 392 -194 Q361 -194 335.5 -178 Q310 -162 311 -124 Q311 -86 339.5 -56 Q368 -26 403 0 L55 0 L55 630 L495 630 L495 554 L147 554 L147 359 L453 359 L453 283 L147 283 L147 76 Z " />
<glyph glyph-name="uni0119" unicode="&#x119;" horiz-adv-x="482" d="M254 57 Q297 57 329 77.5 Q361 98 377 137 L457 117 Q441 73 408 43 Q375 13 330 -1 Q319 -6 306 -15 Q293 -24 282 -35.5 Q271 -47 263.5 -60 Q256 -73 256 -86 Q256 -100 263 -105.5 Q270 -111 281 -111 Q297 -111 314.5 -103 Q332 -95 340 -89 L344 -149 Q330 -159 310 -165 Q290 -171 268 -171 Q236 -171 211 -155 Q186 -139 187 -101 Q187 -75 201 -53.5 Q215 -32 236 -12 Q136 -7 79.5 56.5 Q23 120 25 226 Q29 326 90 385 Q151 444 251 444 Q295 444 332.5 428 Q370 412 397.5 384 Q425 356 441 317.5 Q457 279 457 233 L457 195 L117 195 Q124 133 159 95 Q194 57 254 57 Z M242 374 Q184 374 155 340 Q126 306 119 252 L365 252 Q358 304 328.5 339 Q299 374 242 374 Z " />
<glyph glyph-name="uni011A" unicode="&#x11a;" horiz-adv-x="539" d="M329 677 L409 803 L341 803 L281 736 L220 803 L153 803 L233 677 L329 677 Z M147 76 L147 283 L453 283 L453 359 L147 359 L147 554 L495 554 L495 630 L55 630 L55 0 L506 0 L506 76 L147 76 Z " />
<glyph glyph-name="uni011B" unicode="&#x11b;" horiz-adv-x="482" d="M188 504 L108 630 L175 630 L236 563 L296 630 L364 630 L284 504 L188 504 Z M254 58 Q297 58 329 78.5 Q361 99 377 138 L457 118 Q434 56 378 22 Q322 -12 252 -12 Q145 -12 84 52.5 Q23 117 25 227 Q29 327 90 386 Q151 445 251 445 Q295 445 332.5 429 Q370 413 397.5 385 Q425 357 441 318.5 Q457 280 457 234 L457 196 L117 196 Q124 133 159 95.5 Q194 58 254 58 Z M242 375 Q184 375 155 341 Q126 307 119 253 L365 253 Q358 305 328.5 340 Q299 375 242 375 Z " />
<glyph glyph-name="uni011C" unicode="&#x11c;" horiz-adv-x="675" d="M371 803 L451 677 L384 677 L323 744 L262 677 L195 677 L275 803 L371 803 Z M318 236 L318 317 L617 317 L617 0 L540 0 L537 98 Q515 67 486 43 Q458 21 421.5 4.5 Q385 -12 335 -12 Q265 -12 208 13.5 Q151 39 110.5 83 Q70 127 48 186.5 Q26 246 26 314 Q26 382 48 442 Q70 502 110.5 546.5 Q151 591 208 616.5 Q265 642 335 642 Q441 642 516 586.5 Q591 531 620 428 L529 406 Q509 475 461 518.5 Q413 562 341 562 Q285 562 244 542.5 Q203 523 176.5 489.5 Q150 456 137 411 Q124 366 124 314 Q124 263 137 218 Q150 173 177 139.5 Q204 106 245 87 Q286 68 341 68 Q379 68 412.5 80 Q446 92 471.5 114 Q497 136 513 167 Q529 198 532 236 L318 236 Z " />
<glyph glyph-name="uni011D" unicode="&#x11d;" horiz-adv-x="495" d="M277 630 L357 504 L290 504 L229 571 L168 504 L101 504 L181 630 L277 630 Z M325 84 Q397 84 437.5 56.5 Q478 29 478 -29 Q478 -106 411 -148 Q344 -190 224 -190 Q121 -190 62.5 -160 Q4 -130 4 -69 Q4 -48 12.5 -34 Q21 -20 31.5 -10.5 Q42 -1 51.5 3.5 Q61 8 64 9 Q47 22 36 43 Q25 64 25 89 Q25 126 47 153.5 Q69 181 101 186 Q75 206 59.5 233.5 Q44 261 44 296 Q44 330 58.5 357.5 Q73 385 98 404.5 Q123 424 157.5 435 Q192 446 232 446 Q269 446 301 437 Q333 428 358 411 Q369 425 394.5 441.5 Q420 458 462 458 L474 458 L495 373 L476 373 Q453 373 434 370 Q415 367 404 363 Q421 332 421 296 Q421 263 406.5 235.5 Q392 208 366.5 188.5 Q341 169 306.5 158 Q272 147 232 147 Q184 147 145 162 Q115 150 115 122 Q115 106 126 96.5 Q137 87 152 85 Q157 84 162 84 Q167 84 172 84 L325 84 Z M233 391 Q187 391 161.5 366 Q136 341 136 296 Q136 252 161.5 227 Q187 202 233 202 Q280 202 304.5 227 Q329 252 329 296 Q329 341 304.5 366 Q280 391 233 391 Z M221 -135 Q292 -135 340 -114.5 Q388 -94 388 -53 Q388 -25 370 -13.5 Q352 -2 319 -2 L158 -2 Q132 -2 114 -15 Q96 -28 96 -59 Q96 -97 130 -116 Q164 -135 221 -135 Z " />
<glyph glyph-name="uni011E" unicode="&#x11e;" horiz-adv-x="675" d="M443 805 Q443 742 411.5 707.5 Q380 673 323 673 Q266 673 234.5 707.5 Q203 742 203 805 L266 805 Q266 773 279 755 Q292 737 323 737 Q354 737 367 755 Q380 773 380 805 L443 805 Z M318 236 L318 317 L617 317 L617 0 L540 0 L537 98 Q515 67 486 43 Q458 21 421.5 4.5 Q385 -12 335 -12 Q265 -12 208 13.5 Q151 39 110.5 83 Q70 127 48 186.5 Q26 246 26 314 Q26 382 48 442 Q70 502 110.5 546.5 Q151 591 208 616.5 Q265 642 335 642 Q441 642 516 586.5 Q591 531 620 428 L529 406 Q509 475 461 518.5 Q413 562 341 562 Q285 562 244 542.5 Q203 523 176.5 489.5 Q150 456 137 411 Q124 366 124 314 Q124 263 137 218 Q150 173 177 139.5 Q204 106 245 87 Q286 68 341 68 Q379 68 412.5 80 Q446 92 471.5 114 Q497 136 513 167 Q529 198 532 236 L318 236 Z " />
<glyph glyph-name="uni011F" unicode="&#x11f;" horiz-adv-x="495" d="M350 633 Q350 570 318.5 535.5 Q287 501 230 501 Q173 501 141.5 535.5 Q110 570 110 633 L173 633 Q173 601 186 583 Q199 565 230 565 Q261 565 274 583 Q287 601 287 633 L350 633 Z M325 84 Q397 84 437.5 56.5 Q478 29 478 -29 Q478 -106 411 -148 Q344 -190 224 -190 Q121 -190 62.5 -160 Q4 -130 4 -69 Q4 -48 12.5 -34 Q21 -20 31.5 -10.5 Q42 -1 51.5 3.5 Q61 8 64 9 Q47 22 36 43 Q25 64 25 89 Q25 126 47 153.5 Q69 181 101 186 Q75 206 59.5 233.5 Q44 261 44 296 Q44 330 58.5 357.5 Q73 385 98 404.5 Q123 424 157.5 435 Q192 446 232 446 Q269 446 301 437 Q333 428 358 411 Q369 425 394.5 441.5 Q420 458 462 458 L474 458 L495 373 L476 373 Q453 373 434 370 Q415 367 404 363 Q421 332 421 296 Q421 263 406.5 235.5 Q392 208 366.5 188.5 Q341 169 306.5 158 Q272 147 232 147 Q184 147 145 162 Q115 150 115 122 Q115 106 126 96.5 Q137 87 152 85 Q157 84 162 84 Q167 84 172 84 L325 84 Z M233 391 Q187 391 161.5 366 Q136 341 136 296 Q136 252 161.5 227 Q187 202 233 202 Q280 202 304.5 227 Q329 252 329 296 Q329 341 304.5 366 Q280 391 233 391 Z M221 -135 Q292 -135 340 -114.5 Q388 -94 388 -53 Q388 -25 370 -13.5 Q352 -2 319 -2 L158 -2 Q132 -2 114 -15 Q96 -28 96 -59 Q96 -97 130 -116 Q164 -135 221 -135 Z " />
<glyph glyph-name="uni0120" unicode="&#x120;" horiz-adv-x="675" d="M271 785 L375 785 L375 681 L271 681 L271 785 Z M318 236 L318 317 L617 317 L617 0 L540 0 L537 98 Q515 67 486 43 Q458 21 421.5 4.5 Q385 -12 335 -12 Q265 -12 208 13.5 Q151 39 110.5 83 Q70 127 48 186.5 Q26 246 26 314 Q26 382 48 442 Q70 502 110.5 546.5 Q151 591 208 616.5 Q265 642 335 642 Q441 642 516 586.5 Q591 531 620 428 L529 406 Q509 475 461 518.5 Q413 562 341 562 Q285 562 244 542.5 Q203 523 176.5 489.5 Q150 456 137 411 Q124 366 124 314 Q124 263 137 218 Q150 173 177 139.5 Q204 106 245 87 Q286 68 341 68 Q379 68 412.5 80 Q446 92 471.5 114 Q497 136 513 167 Q529 198 532 236 L318 236 Z " />
<glyph glyph-name="uni0121" unicode="&#x121;" horiz-adv-x="495" d="M177 633 L282 633 L282 528 L177 528 L177 633 Z M325 84 Q397 84 437.5 56.5 Q478 29 478 -29 Q478 -106 411 -148 Q344 -190 224 -190 Q121 -190 62.5 -160 Q4 -130 4 -69 Q4 -48 12.5 -34 Q21 -20 31.5 -10.5 Q42 -1 51.5 3.5 Q61 8 64 9 Q47 22 36 43 Q25 64 25 89 Q25 126 47 153.5 Q69 181 101 186 Q75 206 59.5 233.5 Q44 261 44 296 Q44 330 58.5 357.5 Q73 385 98 404.5 Q123 424 157.5 435 Q192 446 232 446 Q269 446 301 437 Q333 428 358 411 Q369 425 394.5 441.5 Q420 458 462 458 L474 458 L495 373 L476 373 Q453 373 434 370 Q415 367 404 363 Q421 332 421 296 Q421 263 406.5 235.5 Q392 208 366.5 188.5 Q341 169 306.5 158 Q272 147 232 147 Q184 147 145 162 Q115 150 115 122 Q115 106 126 96.5 Q137 87 152 85 Q157 84 162 84 Q167 84 172 84 L325 84 Z M233 391 Q187 391 161.5 366 Q136 341 136 296 Q136 252 161.5 227 Q187 202 233 202 Q280 202 304.5 227 Q329 252 329 296 Q329 341 304.5 366 Q280 391 233 391 Z M221 -135 Q292 -135 340 -114.5 Q388 -94 388 -53 Q388 -25 370 -13.5 Q352 -2 319 -2 L158 -2 Q132 -2 114 -15 Q96 -28 96 -59 Q96 -97 130 -116 Q164 -135 221 -135 Z " />
<glyph glyph-name="uni0122" unicode="&#x122;" horiz-adv-x="675" d="M370 -50 L370 -116 Q369 -170 347.5 -185 Q326 -200 277 -200 L277 -156 Q302 -156 311 -148.5 Q320 -141 320 -128 L277 -128 L277 -50 L370 -50 Z M318 236 L318 317 L617 317 L617 0 L540 0 L537 98 Q515 67 486 43 Q458 21 421.5 4.5 Q385 -12 335 -12 Q265 -12 208 13.5 Q151 39 110.5 83 Q70 127 48 186.5 Q26 246 26 314 Q26 382 48 442 Q70 502 110.5 546.5 Q151 591 208 616.5 Q265 642 335 642 Q441 642 516 586.5 Q591 531 620 428 L529 406 Q509 475 461 518.5 Q413 562 341 562 Q285 562 244 542.5 Q203 523 176.5 489.5 Q150 456 137 411 Q124 366 124 314 Q124 263 137 218 Q150 173 177 139.5 Q204 106 245 87 Q286 68 341 68 Q379 68 412.5 80 Q446 92 471.5 114 Q497 136 513 167 Q529 198 532 236 L318 236 Z " />
<glyph glyph-name="uni0123" unicode="&#x123;" horiz-adv-x="495" d="M177 520 L177 611 Q178 662 197 688.5 Q216 715 269 715 Q272 715 275 714.5 Q278 714 282 714 L282 664 Q256 664 243 653 Q233 643 233 625 L282 625 L282 520 L177 520 Z M325 84 Q397 84 437.5 56.5 Q478 29 478 -29 Q478 -106 411 -148 Q344 -190 224 -190 Q121 -190 62.5 -160 Q4 -130 4 -69 Q4 -48 12.5 -34 Q21 -20 31.5 -10.5 Q42 -1 51.5 3.5 Q61 8 64 9 Q47 22 36 43 Q25 64 25 89 Q25 126 47 153.5 Q69 181 101 186 Q75 206 59.5 233.5 Q44 261 44 296 Q44 330 58.5 357.5 Q73 385 98 404.5 Q123 424 157.5 435 Q192 446 232 446 Q269 446 301 437 Q333 428 358 411 Q369 425 394.5 441.5 Q420 458 462 458 L474 458 L495 373 L476 373 Q453 373 434 370 Q415 367 404 363 Q421 332 421 296 Q421 263 406.5 235.5 Q392 208 366.5 188.5 Q341 169 306.5 158 Q272 147 232 147 Q184 147 145 162 Q115 150 115 122 Q115 106 126 96.5 Q137 87 152 85 Q157 84 162 84 Q167 84 172 84 L325 84 Z M233 391 Q187 391 161.5 366 Q136 341 136 296 Q136 252 161.5 227 Q187 202 233 202 Q280 202 304.5 227 Q329 252 329 296 Q329 341 304.5 366 Q280 391 233 391 Z M221 -135 Q292 -135 340 -114.5 Q388 -94 388 -53 Q388 -25 370 -13.5 Q352 -2 319 -2 L158 -2 Q132 -2 114 -15 Q96 -28 96 -59 Q96 -97 130 -116 Q164 -135 221 -135 Z " />
<glyph glyph-name="uni0124" unicode="&#x124;" horiz-adv-x="657" d="M365 803 L445 677 L385 677 L317 751 L249 677 L189 677 L269 803 L365 803 Z M597 630 L597 0 L504 0 L504 283 L148 283 L148 0 L55 0 L55 630 L148 630 L148 359 L504 359 L504 630 L597 630 Z " />
<glyph glyph-name="uni0125" unicode="&#x125;" horiz-adv-x="502" d="M302 803 L382 677 L315 677 L254 744 L194 677 L126 677 L206 803 L302 803 Z M280 447 Q371 447 414 399 Q457 351 457 274 L457 0 L367 0 L367 257 Q367 310 341 341.5 Q315 373 263 373 Q239 373 217 364 Q195 355 178 338.5 Q161 322 151 299 Q141 276 141 247 L141 0 L51 0 L51 630 L141 630 L141 356 Q157 394 196.5 420.5 Q236 447 280 447 Z " />
<glyph glyph-name="uni0126" unicode="&#x126;" horiz-adv-x="697" d="M687 518 L621 518 L621 630 L529 630 L529 518 L173 518 L173 630 L81 630 L81 518 L10 518 L10 442 L81 442 L81 0 L173 0 L173 259 L529 259 L529 0 L621 0 L621 442 L687 442 L687 518 Z M529 335 L173 335 L173 442 L529 442 L529 335 Z " />
<glyph glyph-name="uni0127" unicode="&#x127;" horiz-adv-x="511" d="M285 447 Q378 447 422 396.5 Q466 346 466 268 L466 0 L374 0 L375 252 Q375 306 348.5 338.5 Q322 371 268 371 Q243 371 220.5 362 Q198 353 181 336 Q164 319 153.5 295.5 Q143 272 143 242 L142 0 L53 1 L53 479 L-6 479 L-6 556 L53 556 L53 630 L143 630 L143 556 L283 556 L283 479 L143 479 L143 364 Q160 405 200 426 Q240 447 285 447 Z " />
<glyph glyph-name="uni0128" unicode="&#x128;" horiz-adv-x="249" d="M-25 675 Q-25 731 -4.5 764.5 Q16 798 60 798 Q80 798 95.5 790 Q111 782 124 772.5 Q137 763 149.5 755 Q162 747 177 747 Q198 747 205.5 757.5 Q213 768 215 795 L274 795 Q274 739 253 705.5 Q232 672 189 672 Q168 672 152.5 680 Q137 688 124 698 Q111 708 98.5 716 Q86 724 71 724 Q50 724 42.5 713 Q35 702 33 675 L-25 675 Z M171 630 L171 0 L78 0 L78 630 L171 630 Z " />
<glyph glyph-name="uni0129" unicode="&#x129;" horiz-adv-x="249" d="M-25 506 Q-25 562 -4.5 595.5 Q16 629 60 629 Q80 629 95.5 621 Q111 613 124 603 Q137 593 149.5 585 Q162 577 177 577 Q198 577 205.5 588 Q213 599 215 626 L274 626 Q274 570 253 536.5 Q232 503 189 503 Q168 503 152.5 511 Q137 519 124 529 Q111 539 98.5 547 Q86 555 71 555 Q50 555 42.5 544 Q35 533 33 506 L-25 506 Z M160 436 L160 1 L69 1 L69 436 L160 436 Z " />
<glyph glyph-name="uni012A" unicode="&#x12a;" horiz-adv-x="241" d="M-12 762 L253 762 L253 685 L-12 685 L-12 762 Z M167 630 L74 630 L74 0 L167 0 L167 630 Z " />
<glyph glyph-name="uni012B" unicode="&#x12b;" horiz-adv-x="257" d="M-4 515 L261 515 L261 592 L-4 592 L-4 515 Z M174 436 L83 436 L83 1 L174 1 L174 436 Z " />
<glyph glyph-name="uni012C" unicode="&#x12c;" horiz-adv-x="218" d="M165 805 L228 805 Q228 742 196.5 707.5 Q165 673 108 673 Q51 673 19.5 707.5 Q-12 742 -12 805 L51 805 Q51 773 64 755 Q77 737 108 737 Q139 737 152 755 Q165 773 165 805 Z M154 0 L62 0 L62 630 L154 630 L154 0 Z " />
<glyph glyph-name="uni012D" unicode="&#x12d;" horiz-adv-x="202" d="M158 633 L221 633 Q221 570 189.5 535.5 Q158 501 101 501 Q44 501 12.5 535.5 Q-19 570 -19 633 L44 633 Q44 601 57 583 Q70 565 101 565 Q132 565 145 583 Q158 601 158 633 Z M144 436 L144 0 L54 0 L54 436 L144 436 Z " />
<glyph glyph-name="uni012E" unicode="&#x12e;" horiz-adv-x="230" d="M171 -112 L175 -172 Q161 -182 141 -188 Q121 -194 99 -194 Q68 -194 43 -178 Q18 -162 18 -124 Q18 -86 46.5 -56 Q75 -26 110 0 L82 0 L82 630 L174 630 L174 0 L167 -7 Q122 -46 104.5 -67.5 Q87 -89 87 -109 Q88 -123 95 -128.5 Q102 -134 113 -134 Q129 -134 146 -126.5 Q163 -119 171 -112 Z " />
<glyph glyph-name="uni012F" unicode="&#x12f;" horiz-adv-x="214" d="M162 -94 L165 -154 Q151 -164 131 -170 Q111 -176 90 -176 Q58 -176 33 -160.5 Q8 -145 9 -106 Q9 -75 29 -49 Q49 -23 78 0 L54 0 L54 436 L145 436 L145 0 Q108 -33 93 -52.5 Q78 -72 78 -91 Q79 -105 86 -111 Q93 -117 104 -117 Q120 -117 137 -109 Q154 -101 162 -94 Z M52 602 L146 602 L146 510 L52 510 L52 602 Z " />
<glyph glyph-name="uni0130" unicode="&#x130;" horiz-adv-x="220" d="M55 785 L160 785 L160 681 L55 681 L55 785 Z M153 0 L61 0 L61 630 L153 630 L153 0 Z " />
<glyph glyph-name="uni0131" unicode="&#x131;" horiz-adv-x="181" d="M50 437 L50 0 L131 0 L131 437 L50 437 Z " />
<glyph glyph-name="uni0132" unicode="&#x132;" horiz-adv-x="719" d="M147 0 L55 0 L55 630 L147 630 L147 0 Z M577 630 L669 630 L669 230 Q669 -12 436 -12 Q338 -13 283 45 Q228 103 224 194 L313 206 Q316 142 342.5 105 Q369 68 438 68 Q520 70 548 110.5 Q576 151 577 227 L577 630 Z " />
<glyph glyph-name="uni0133" unicode="&#x133;" horiz-adv-x="363" d="M141 436 L141 0 L51 0 L51 436 L141 436 Z M50 612 L142 612 L142 519 L50 519 L50 612 Z M222 436 L312 436 L312 -65 Q307 -126 262.5 -158 Q218 -190 160 -190 Q145 -190 130 -187 L130 -113 Q146 -116 167 -116 Q196 -113 209.5 -88 Q223 -63 222 -25 L222 436 Z M221 612 L313 612 L313 519 L221 519 L221 612 Z " />
<glyph glyph-name="uni0134" unicode="&#x134;" horiz-adv-x="563" d="M449 803 L529 677 L469 677 L401 751 L333 677 L273 677 L353 803 L449 803 Z M363 630 L455 630 L455 230 Q455 -12 222 -12 Q124 -13 69 45 Q14 103 10 194 L99 206 Q102 142 128.5 105 Q155 68 224 68 Q306 70 334 110.5 Q362 151 363 227 L363 630 Z " />
<glyph glyph-name="uni0135" unicode="&#x135;" horiz-adv-x="181" d="M135 630 L215 504 L155 504 L87 578 L19 504 L-41 504 L39 630 L135 630 Z M135 436 L135 -59 Q135 -122 99.5 -155.5 Q64 -189 4 -189 Q-14 -189 -32 -185.5 Q-50 -182 -67 -176 L-60 -101 Q-46 -107 -31 -111 Q-16 -115 -1 -115 Q45 -115 45 -68 L45 436 L135 436 Z " />
<glyph glyph-name="uni0136" unicode="&#x136;" horiz-adv-x="623" d="M363 -49 L363 -119 Q362 -167 343 -183 Q324 -199 291 -199 Q286 -199 280.5 -199 Q275 -199 270 -198 L270 -157 Q295 -157 304 -149.5 Q313 -142 313 -130 L270 -130 L270 -49 L363 -49 Z M333 376 L627 0 L517 0 L271 316 L147 197 L147 0 L55 0 L55 630 L147 630 L147 302 L487 630 L597 630 L333 376 Z " />
<glyph glyph-name="uni0137" unicode="&#x137;" horiz-adv-x="470" d="M274 -49 L274 -108 Q274 -153 257.5 -174.5 Q241 -196 194 -196 L194 -160 Q218 -159 228.5 -149.5 Q239 -140 239 -115 L194 -115 L194 -49 L274 -49 Z M445 436 L260 263 L470 0 L359 0 L195 200 L140 149 L140 0 L50 0 L50 630 L140 630 L140 268 L331 436 L445 436 Z " />
<glyph glyph-name="uni0138" unicode="&#x138;" horiz-adv-x="470" d="M445 436 L335 436 L140 252 L140 436 L50 436 L50 0 L140 0 L140 149 L201 205 L365 0 L470 0 L260 263 L445 436 Z " />
<glyph glyph-name="uni0139" unicode="&#x139;" horiz-adv-x="521" d="M128 677 L225 803 L119 803 L65 677 L128 677 Z M147 76 L147 630 L55 630 L55 0 L496 0 L496 76 L147 76 Z " />
<glyph glyph-name="uni013A" unicode="&#x13a;" horiz-adv-x="195" d="M63 677 L117 803 L222 803 L125 677 L63 677 Z M141 630 L50 630 L50 0 L140 0 L141 630 Z " />
<glyph glyph-name="uni013B" unicode="&#x13b;" horiz-adv-x="521" d="M322 -52 L322 -116 Q321 -167 301.5 -184.5 Q282 -202 248 -202 Q243 -202 238.5 -202 Q234 -202 229 -201 L229 -157 Q254 -155 263 -148 Q272 -141 272 -129 L229 -129 L229 -52 L322 -52 Z M147 76 L496 76 L496 0 L55 0 L55 630 L147 630 L147 76 Z " />
<glyph glyph-name="uni013C" unicode="&#x13c;" horiz-adv-x="197" d="M147 -47 L147 -116 Q147 -145 140.5 -162.5 Q134 -180 122 -189 Q110 -198 93 -201 Q76 -204 55 -204 L55 -158 Q80 -158 89 -150.5 Q98 -143 97 -130 L55 -130 L55 -47 L147 -47 Z M146 630 L146 0 L56 0 L56 630 L146 630 Z " />
<glyph glyph-name="uni013D" unicode="&#x13d;" horiz-adv-x="521" d="M338 504 L396 630 L291 630 L276 504 L338 504 Z M147 76 L147 630 L55 630 L55 0 L496 0 L496 76 L147 76 Z " />
<glyph glyph-name="uni013E" unicode="&#x13e;" horiz-adv-x="183" d="M183 504 L198 630 L303 630 L245 504 L183 504 Z M146 630 L55 630 L55 0 L145 0 L146 630 Z " />
<glyph glyph-name="uni013F" unicode="&#x13f;" horiz-adv-x="522" d="M324 385 L429 385 L429 281 L324 281 L324 385 Z M147 76 L147 630 L55 630 L55 0 L496 0 L496 76 L147 76 Z " />
<glyph glyph-name="uni0140" unicode="&#x140;" horiz-adv-x="328" d="M213 262 L318 262 L318 366 L213 366 L213 262 Z M141 630 L50 630 L50 0 L141 0 L141 630 Z " />
<glyph glyph-name="uni0141" unicode="&#x141;" horiz-adv-x="528" d="M164 76 L164 258 L355 340 L355 419 L164 337 L164 630 L72 630 L72 298 L9 271 L9 192 L72 219 L72 0 L513 0 L513 75 L513 76 L164 76 Z " />
<glyph glyph-name="uni0142" unicode="&#x142;" horiz-adv-x="235" d="M225 451 L161 415 L161 638 L71 638 L71 364 L7 328 L7 253 L71 289 L71 0 L161 0 L161 340 L225 376 L225 451 Z " />
<glyph glyph-name="uni0143" unicode="&#x143;" horiz-adv-x="629" d="M289 677 L343 802 L449 802 L352 677 L289 677 Z M482 630 L482 90 L478 90 L200 630 L55 630 L55 0 L147 0 L147 539 L151 539 L428 0 L574 0 L574 630 L482 630 Z " />
<glyph glyph-name="uni0144" unicode="&#x144;" horiz-adv-x="481" d="M211 504 L265 630 L371 630 L274 504 L211 504 Z M275 447 Q356 447 396 398.5 Q436 350 436 275 L436 0 L346 0 L346 265 Q346 315 326 344 Q306 373 258 373 Q236 373 215 364.5 Q194 356 177.5 341 Q161 326 151 304.5 Q141 283 141 256 L141 0 L50 0 L50 436 L127 436 L141 357 Q156 395 194.5 421 Q233 447 275 447 Z " />
<glyph glyph-name="uni0145" unicode="&#x145;" horiz-adv-x="629" d="M268 -50 L361 -50 L361 -117 Q360 -171 338.5 -185.5 Q317 -200 268 -200 L268 -156 Q293 -156 302 -149 Q311 -142 311 -129 L268 -129 L268 -50 Z M482 630 L575 630 L575 0 L428 0 L151 539 L147 539 L147 0 L55 0 L55 630 L200 630 L478 90 L482 90 L482 630 Z " />
<glyph glyph-name="uni0146" unicode="&#x146;" horiz-adv-x="481" d="M275 447 Q356 447 396 398.5 Q436 350 436 275 L436 0 L346 0 L346 265 Q346 315 326 344 Q306 373 258 373 Q236 373 215 364.5 Q194 356 177.5 341 Q161 326 151 304.5 Q141 283 141 256 L141 0 L50 0 L50 436 L127 436 L141 357 Q156 395 194.5 421 Q233 447 275 447 Z M290 -55 L290 -125 Q289 -173 270 -189 Q251 -205 218 -205 Q213 -205 207.5 -205 Q202 -205 197 -204 L197 -163 Q222 -163 231 -155.5 Q240 -148 240 -136 L197 -136 L197 -55 L290 -55 Z " />
<glyph glyph-name="uni0147" unicode="&#x147;" horiz-adv-x="629" d="M363 803 L443 677 L375 677 L315 744 L254 677 L187 677 L267 803 L363 803 Z M482 630 L482 90 L478 90 L200 630 L55 630 L55 0 L147 0 L147 539 L151 539 L428 0 L574 0 L574 630 L482 630 Z " />
<glyph glyph-name="uni0148" unicode="&#x148;" horiz-adv-x="481" d="M195 504 L115 630 L183 630 L243 563 L304 630 L371 630 L291 504 L195 504 Z M275 447 Q356 447 396 398.5 Q436 350 436 275 L436 0 L346 0 L346 265 Q346 315 326 344 Q306 373 258 373 Q236 373 215 364.5 Q194 356 177.5 341 Q161 326 151 304.5 Q141 283 141 256 L141 0 L50 0 L50 436 L127 436 L141 357 Q156 395 194.5 421 Q233 447 275 447 Z " />
<glyph glyph-name="uni014A" unicode="&#x14a;" horiz-adv-x="624" d="M574 630 L574 -31 Q574 -88 559 -123.5 Q544 -159 520 -179 Q496 -199 467 -206 Q438 -213 410 -213 Q348 -213 300 -183 Q252 -153 230 -109 L296 -58 Q313 -84 339.5 -107 Q366 -130 404 -130 Q449 -130 465 -100.5 Q481 -71 482 0 L152 539 L147 539 L147 0 L55 0 L55 630 L201 630 L478 169 L482 169 L482 630 L574 630 Z " />
<glyph glyph-name="uni014B" unicode="&#x14b;" horiz-adv-x="488" d="M284 457 Q368 457 408 408 Q448 359 448 281 L448 -76 Q446 -106 432.5 -129.5 Q419 -153 397.5 -168.5 Q376 -184 349 -192 Q322 -200 294 -200 Q286 -200 279 -199.5 Q272 -199 265 -198 L265 -109 Q285 -111 302 -111 Q331 -108 344.5 -83 Q358 -58 357 -20 L357 272 Q357 323 335.5 352.5 Q314 382 266 382 Q244 382 222 373.5 Q200 365 183.5 349.5 Q167 334 156.5 311.5 Q146 289 146 262 L146 0 L55 0 L55 447 L133 447 L147 366 Q163 405 202 431 Q241 457 284 457 Z " />
<glyph glyph-name="uni014C" unicode="&#x14c;" horiz-adv-x="686" d="M210 762 L475 762 L475 685 L210 685 L210 762 Z M344 642 Q411 642 468.5 617 Q526 592 568.5 548 Q611 504 635.5 444 Q660 384 660 314 Q660 245 635.5 185 Q611 125 568.5 81.5 Q526 38 468.5 13 Q411 -12 344 -12 Q273 -12 214.5 13 Q156 38 114 81.5 Q72 125 49 185 Q26 245 26 314 Q26 384 49 444 Q72 504 114 548 Q156 592 214.5 617 Q273 642 344 642 Z M344 68 Q395 68 436 86 Q477 104 505.5 136.5 Q534 169 549.5 214.5 Q565 260 565 314 Q565 368 549.5 413.5 Q534 459 505.5 492 Q477 525 436 543.5 Q395 562 344 562 Q288 562 246 543.5 Q204 525 176.5 492 Q149 459 135 413.5 Q121 368 121 314 Q121 260 135 214.5 Q149 169 176.5 136.5 Q204 104 246 86 Q288 68 344 68 Z " />
<glyph glyph-name="uni014D" unicode="&#x14d;" horiz-adv-x="495" d="M115 592 L380 592 L380 515 L115 515 L115 592 Z M249 447 Q296 447 336.5 430.5 Q377 414 406.5 384 Q436 354 453 311.5 Q470 269 470 217 Q470 166 453 123.5 Q436 81 406.5 51 Q377 21 336.5 4.5 Q296 -12 249 -12 Q199 -12 157.5 5.5 Q116 23 86.5 54 Q57 85 41 126.5 Q25 168 25 217 Q25 266 41 308 Q57 350 86.5 381 Q116 412 157.5 429.5 Q199 447 249 447 Z M248 62 Q308 62 343 104 Q378 146 378 218 Q378 290 343 331.5 Q308 373 248 373 Q186 373 151.5 331.5 Q117 290 117 218 Q117 146 151.5 104 Q186 62 248 62 Z " />
<glyph glyph-name="uni014E" unicode="&#x14e;" horiz-adv-x="686" d="M463 804 Q463 741 431.5 707 Q400 673 343 673 Q286 673 254.5 707 Q223 741 223 804 L286 804 Q286 772 299 754 Q312 736 343 736 Q374 736 387 754 Q400 772 400 804 L463 804 Z M344 642 Q411 642 468.5 617 Q526 592 568.5 548 Q611 504 635.5 444 Q660 384 660 314 Q660 245 635.5 185 Q611 125 568.5 81.5 Q526 38 468.5 13 Q411 -12 344 -12 Q273 -12 214.5 13 Q156 38 114 81.5 Q72 125 49 185 Q26 245 26 314 Q26 384 49 444 Q72 504 114 548 Q156 592 214.5 617 Q273 642 344 642 Z M344 68 Q395 68 436 86 Q477 104 505.5 136.5 Q534 169 549.5 214.5 Q565 260 565 314 Q565 368 549.5 413.5 Q534 459 505.5 492 Q477 525 436 543.5 Q395 562 344 562 Q288 562 246 543.5 Q204 525 176.5 492 Q149 459 135 413.5 Q121 368 121 314 Q121 260 135 214.5 Q149 169 176.5 136.5 Q204 104 246 86 Q288 68 344 68 Z " />
<glyph glyph-name="uni014F" unicode="&#x14f;" horiz-adv-x="495" d="M367 632 Q367 569 336 535 Q305 501 248 501 Q190 501 159 535 Q128 569 128 632 L191 632 Q191 600 203.5 582 Q216 564 248 564 Q279 564 291.5 582 Q304 600 304 632 L367 632 Z M249 447 Q296 447 336.5 430.5 Q377 414 406.5 384 Q436 354 453 311.5 Q470 269 470 217 Q470 166 453 123.5 Q436 81 406.5 51 Q377 21 336.5 4.5 Q296 -12 249 -12 Q199 -12 157.5 5.5 Q116 23 86.5 54 Q57 85 41 126.5 Q25 168 25 217 Q25 266 41 308 Q57 350 86.5 381 Q116 412 157.5 429.5 Q199 447 249 447 Z M248 62 Q308 62 343 104 Q378 146 378 218 Q378 290 343 331.5 Q308 373 248 373 Q186 373 151.5 331.5 Q117 290 117 218 Q117 146 151.5 104 Q186 62 248 62 Z " />
<glyph glyph-name="uni0150" unicode="&#x150;" horiz-adv-x="686" d="M243 677 L297 803 L402 803 L305 677 L243 677 Z M380 677 L434 803 L540 803 L443 677 L380 677 Z M344 642 Q411 642 468.5 617 Q526 592 568.5 548 Q611 504 635.5 444 Q660 384 660 314 Q660 245 635.5 185 Q611 125 568.5 81.5 Q526 38 468.5 13 Q411 -12 344 -12 Q273 -12 214.5 13 Q156 38 114 81.5 Q72 125 49 185 Q26 245 26 314 Q26 384 49 444 Q72 504 114 548 Q156 592 214.5 617 Q273 642 344 642 Z M344 68 Q395 68 436 86 Q477 104 505.5 136.5 Q534 169 549.5 214.5 Q565 260 565 314 Q565 368 549.5 413.5 Q534 459 505.5 492 Q477 525 436 543.5 Q395 562 344 562 Q288 562 246 543.5 Q204 525 176.5 492 Q149 459 135 413.5 Q121 368 121 314 Q121 260 135 214.5 Q149 169 176.5 136.5 Q204 104 246 86 Q288 68 344 68 Z " />
<glyph glyph-name="uni0151" unicode="&#x151;" horiz-adv-x="495" d="M142 504 L196 630 L301 630 L204 504 L142 504 Z M280 504 L334 630 L439 630 L342 504 L280 504 Z M249 447 Q296 447 336.5 430.5 Q377 414 406.5 384 Q436 354 453 311.5 Q470 269 470 217 Q470 166 453 123.5 Q436 81 406.5 51 Q377 21 336.5 4.5 Q296 -12 249 -12 Q199 -12 157.5 5.5 Q116 23 86.5 54 Q57 85 41 126.5 Q25 168 25 217 Q25 266 41 308 Q57 350 86.5 381 Q116 412 157.5 429.5 Q199 447 249 447 Z M248 62 Q308 62 343 104 Q378 146 378 218 Q378 290 343 331.5 Q308 373 248 373 Q186 373 151.5 331.5 Q117 290 117 218 Q117 146 151.5 104 Q186 62 248 62 Z " />
<glyph glyph-name="uni0152" unicode="&#x152;" horiz-adv-x="956" d="M564 76 L923 76 L923 0 L333 0 Q259 0 199 21.5 Q139 43 97 83.5 Q55 124 32.5 182.5 Q10 241 10 315 Q10 389 32.5 447.5 Q55 506 97 546.5 Q139 587 199 608.5 Q259 630 333 630 L912 630 L912 554 L564 554 L564 359 L870 359 L870 283 L564 283 L564 76 Z M472 76 L472 554 L335 554 Q224 554 166 492 Q108 430 108 315 Q108 200 166 138 Q224 76 335 77 L472 76 Z " />
<glyph glyph-name="uni0153" unicode="&#x153;" horiz-adv-x="836" d="M608 58 Q651 58 683 78.5 Q715 99 731 138 L811 118 Q788 56 732 22 Q676 -12 606 -12 Q545 -12 498.5 9.5 Q452 31 423 71 Q393 32 348 10 Q303 -12 249 -12 Q199 -12 157.5 5.5 Q116 23 86.5 54 Q57 85 41 126.5 Q25 168 25 217 Q25 266 41 308 Q57 350 86.5 381 Q116 412 157.5 429.5 Q199 447 249 447 Q304 447 349.5 425 Q395 403 424 363 Q459 409 504 427 Q549 445 605 445 Q649 445 686.5 429 Q724 413 751.5 385 Q779 357 795 318.5 Q811 280 811 234 L811 196 L471 196 Q478 134 513 96 Q548 58 608 58 Z M596 375 Q538 375 509 341 Q480 307 473 253 L719 253 Q712 305 682.5 340 Q653 375 596 375 Z M248 62 Q308 62 343 104 Q378 146 378 218 Q378 290 343 331.5 Q308 373 248 373 Q186 373 151.5 331.5 Q117 290 117 218 Q117 146 151.5 104 Q186 62 248 62 Z " />
<glyph glyph-name="uni0154" unicode="&#x154;" horiz-adv-x="591" d="M260 677 L314 803 L419 803 L322 677 L260 677 Z M540 31 Q540 11 553 0 L458 0 Q448 12 448 32 L448 136 Q448 205 414 232 Q380 259 301 259 L147 259 L147 0 L55 0 L55 630 L334 630 Q374 630 414 620.5 Q454 611 485.5 590 Q517 569 536.5 534 Q556 499 556 448 Q556 408 543.5 382 Q531 356 513 340 Q495 324 475.5 316 Q456 308 442 305 Q495 291 517.5 255.5 Q540 220 540 149 L540 31 Z M324 335 Q390 335 424 365 Q458 395 458 448 Q458 501 424 527.5 Q390 554 325 554 L147 554 L147 335 L324 335 Z " />
<glyph glyph-name="uni0155" unicode="&#x155;" horiz-adv-x="307" d="M122 504 L176 630 L282 630 L185 504 L122 504 Z M302 438 L302 356 Q294 358 287.5 358 Q281 358 275 358 Q217 358 180.5 320.5 Q144 283 146 209 L146 0 L55 0 L55 436 L129 436 L143 368 L145 368 Q189 440 275 440 Q281 440 288 439.5 Q295 439 302 438 Z " />
<glyph glyph-name="uni0156" unicode="&#x156;" horiz-adv-x="591" d="M345 -50 L345 -120 Q344 -168 325 -184 Q306 -200 273 -200 Q268 -200 262.5 -200 Q257 -200 252 -199 L252 -158 Q276 -158 285.5 -150.5 Q295 -143 295 -131 L252 -131 L252 -50 L345 -50 Z M540 31 Q540 11 553 0 L458 0 Q448 12 448 32 L448 136 Q448 205 414 232 Q380 259 301 259 L147 259 L147 0 L55 0 L55 630 L334 630 Q374 630 414 620.5 Q454 611 485.5 590 Q517 569 536.5 534 Q556 499 556 448 Q556 408 543.5 382 Q531 356 513 340 Q495 324 475.5 316 Q456 308 442 305 Q495 291 517.5 255.5 Q540 220 540 149 L540 31 Z M324 335 Q390 335 424 365 Q458 395 458 448 Q458 501 424 527.5 Q390 554 325 554 L147 554 L147 335 L324 335 Z " />
<glyph glyph-name="uni0157" unicode="&#x157;" horiz-adv-x="302" d="M143 -47 L143 -115 Q142 -170 117 -184 Q92 -198 50 -198 L50 -151 Q75 -151 84.5 -143.5 Q94 -136 93 -125 L50 -125 L50 -47 L143 -47 Z M297 438 L297 356 Q290 357 283 357.5 Q276 358 270 358 Q211 358 175 320.5 Q139 283 141 209 L141 0 L50 0 L50 436 L124 436 L138 368 L140 368 Q184 440 270 440 Q276 440 283 439.5 Q290 439 297 438 Z " />
<glyph glyph-name="uni0158" unicode="&#x158;" horiz-adv-x="591" d="M258 677 L178 803 L245 803 L306 737 L366 803 L434 803 L354 677 L258 677 Z M540 31 Q540 11 553 0 L458 0 Q448 12 448 32 L448 136 Q448 205 414 232 Q380 259 301 259 L147 259 L147 0 L55 0 L55 630 L334 630 Q374 630 414 620.5 Q454 611 485.5 590 Q517 569 536.5 534 Q556 499 556 448 Q556 408 543.5 382 Q531 356 513 340 Q495 324 475.5 316 Q456 308 442 305 Q495 291 517.5 255.5 Q540 220 540 149 L540 31 Z M324 335 Q390 335 424 365 Q458 395 458 448 Q458 501 424 527.5 Q390 554 325 554 L147 554 L147 335 L324 335 Z " />
<glyph glyph-name="uni0159" unicode="&#x159;" horiz-adv-x="321" d="M130 504 L50 630 L117 630 L178 563 L239 630 L306 630 L226 504 L130 504 Z M316 438 L316 356 Q309 357 302 357.5 Q295 358 289 358 Q230 358 194 320.5 Q158 283 160 209 L160 0 L69 0 L69 436 L143 436 L157 368 L159 368 Q203 440 289 440 Q295 440 302 439.5 Q309 439 316 438 Z " />
<glyph glyph-name="uni015A" unicode="&#x15a;" horiz-adv-x="586" d="M323 677 L260 677 L314 803 L420 803 L323 677 Z M551 170 Q551 85 484 36.5 Q417 -12 301 -12 Q187 -12 111.5 41.5 Q36 95 22 186 L107 206 Q111 180 125.5 154.5 Q140 129 165 109 Q190 89 224 77 Q258 65 301 65 Q335 65 364.5 73 Q394 81 415.5 94.5 Q437 108 449.5 126.5 Q462 145 462 166 Q462 208 432.5 231.5 Q403 255 337 267 L212 290 Q37 323 37 458 Q37 543 101 592.5 Q165 642 277 642 Q336 642 379 632.5 Q422 623 453 603 Q484 583 503.5 550.5 Q523 518 534 471 L449 451 Q436 511 394.5 538 Q353 565 278 565 Q208 565 167 537 Q126 509 126 463 Q126 439 140.5 423 Q155 407 175 396 Q195 385 216 379.5 Q237 374 251 371 L365 350 Q406 342 440.5 330.5 Q475 319 499.5 299.5 Q524 280 537.5 248.5 Q551 217 551 170 Z " />
<glyph glyph-name="uni015B" unicode="&#x15b;" horiz-adv-x="424" d="M172 504 L226 630 L332 630 L235 504 L172 504 Z M263 252 Q292 246 316.5 237.5 Q341 229 358.5 214 Q376 199 385.5 176.5 Q395 154 395 121 Q395 84 379 58.5 Q363 33 337.5 17.5 Q312 2 280.5 -5 Q249 -12 217 -12 Q137 -12 84 26.5 Q31 65 20 129 L97 146 Q104 103 140.5 81 Q177 59 218 59 Q259 59 286 76.5 Q313 94 313 118 Q313 143 299 154 Q290 162 275.5 166 Q261 170 240 174 L156 189 Q105 197 67.5 228 Q30 259 30 314 Q30 350 45 375.5 Q60 401 84 417 Q108 433 139 440 Q170 447 201 447 Q284 447 325.5 419 Q367 391 384 325 L307 307 Q299 343 274.5 359.5 Q250 376 202 376 Q160 376 137 360 Q114 344 114 317 Q114 304 121 294.5 Q128 285 139 279.5 Q150 274 162.5 271 Q175 268 186 266 L263 252 Z " />
<glyph glyph-name="uni015C" unicode="&#x15c;" horiz-adv-x="586" d="M335 803 L415 677 L347 677 L287 744 L226 677 L159 677 L239 803 L335 803 Z M551 170 Q551 85 484 36.5 Q417 -12 301 -12 Q187 -12 111.5 41.5 Q36 95 22 186 L107 206 Q111 180 125.5 154.5 Q140 129 165 109 Q190 89 224 77 Q258 65 301 65 Q335 65 364.5 73 Q394 81 415.5 94.5 Q437 108 449.5 126.5 Q462 145 462 166 Q462 208 432.5 231.5 Q403 255 337 267 L212 290 Q37 323 37 458 Q37 543 101 592.5 Q165 642 277 642 Q336 642 379 632.5 Q422 623 453 603 Q484 583 503.5 550.5 Q523 518 534 471 L449 451 Q436 511 394.5 538 Q353 565 278 565 Q208 565 167 537 Q126 509 126 463 Q126 439 140.5 423 Q155 407 175 396 Q195 385 216 379.5 Q237 374 251 371 L365 350 Q406 342 440.5 330.5 Q475 319 499.5 299.5 Q524 280 537.5 248.5 Q551 217 551 170 Z " />
<glyph glyph-name="uni015D" unicode="&#x15d;" horiz-adv-x="424" d="M256 630 L336 504 L268 504 L208 570 L147 504 L80 504 L160 630 L256 630 Z M263 252 Q292 246 316.5 237.5 Q341 229 358.5 214 Q376 199 385.5 176.5 Q395 154 395 121 Q395 84 379 58.5 Q363 33 337.5 17.5 Q312 2 280.5 -5 Q249 -12 217 -12 Q137 -12 84 26.5 Q31 65 20 129 L97 146 Q104 103 140.5 81 Q177 59 218 59 Q259 59 286 76.5 Q313 94 313 118 Q313 143 299 154 Q290 162 275.5 166 Q261 170 240 174 L156 189 Q105 197 67.5 228 Q30 259 30 314 Q30 350 45 375.5 Q60 401 84 417 Q108 433 139 440 Q170 447 201 447 Q284 447 325.5 419 Q367 391 384 325 L307 307 Q299 343 274.5 359.5 Q250 376 202 376 Q160 376 137 360 Q114 344 114 317 Q114 304 121 294.5 Q128 285 139 279.5 Q150 274 162.5 271 Q175 268 186 266 L263 252 Z " />
<glyph glyph-name="uni015E" unicode="&#x15e;" horiz-adv-x="587" d="M552 170 Q552 87 487 38.5 Q422 -10 310 -12 L284 -47 Q306 -42 322 -42 Q354 -42 376 -57 Q398 -72 398 -104 Q398 -145 363.5 -161 Q329 -177 286 -177 Q250 -177 221 -165 Q192 -153 176 -139 L193 -107 Q209 -119 232.5 -129 Q256 -139 283 -139 Q306 -139 319.5 -132 Q333 -125 333 -109 Q333 -92 321.5 -85 Q310 -78 294 -78 Q271 -78 248 -88 L228 -77 L273 -11 Q170 -4 103 48.5 Q36 101 22 186 L107 206 Q111 180 125.5 154.5 Q140 129 165 109 Q190 89 224 77 Q258 65 301 65 Q335 65 364.5 73 Q394 81 415.5 94.5 Q437 108 449.5 126.5 Q462 145 462 166 Q462 208 432.5 232 Q403 256 337 268 L212 291 Q38 323 38 459 Q38 544 101.5 593 Q165 642 277 642 Q336 642 379.5 633 Q423 624 453.5 603.5 Q484 583 503.5 550.5 Q523 518 535 471 L449 451 Q436 511 394.5 538 Q353 565 278 565 Q208 565 167 537 Q126 509 126 463 Q126 439 140.5 423 Q155 407 175 396 Q195 385 216 379.5 Q237 374 251 371 L365 350 Q406 343 440.5 331.5 Q475 320 500 300 Q525 280 538.5 248.5 Q552 217 552 170 Z " />
<glyph glyph-name="uni015F" unicode="&#x15f;" horiz-adv-x="420" d="M395 120 Q395 87 382 63 Q369 39 347 23 Q325 7 297.5 -1.5 Q270 -10 241 -12 L217 -40 Q240 -35 257 -35 Q288 -35 309.5 -50 Q331 -65 331 -96 Q331 -137 297 -153 Q263 -169 220 -169 Q184 -169 155 -157.5 Q126 -146 110 -132 L127 -100 Q143 -112 166.5 -121.5 Q190 -131 217 -131 Q240 -131 253.5 -124 Q267 -117 266 -101 Q266 -84 255 -77.5 Q244 -71 228 -71 Q205 -71 182 -81 L162 -70 L202 -12 Q128 -8 79 29.5 Q30 67 20 129 L97 146 Q104 103 140.5 80.5 Q177 58 218 58 Q259 58 286 75.5 Q313 93 313 117 Q313 142 299 153 Q290 161 275.5 165 Q261 169 240 173 L156 188 Q105 197 67.5 228 Q30 259 30 314 Q30 350 45 375.5 Q60 401 84 416.5 Q108 432 139 439.5 Q170 447 201 447 Q284 447 325.5 419 Q367 391 384 325 L307 307 Q299 342 274.5 358.5 Q250 375 202 375 Q160 375 137 359 Q114 343 114 316 Q114 303 121 294 Q128 285 139 279 Q150 273 162.5 270 Q175 267 186 265 L263 251 Q292 245 316.5 236.5 Q341 228 358.5 213 Q376 198 385.5 175.5 Q395 153 395 120 Z " />
<glyph glyph-name="uni0160" unicode="&#x160;" horiz-adv-x="586" d="M239 677 L159 803 L226 803 L287 736 L347 803 L415 803 L335 677 L239 677 Z M551 170 Q551 85 484 36.5 Q417 -12 301 -12 Q187 -12 111.5 41.5 Q36 95 22 186 L107 206 Q111 180 125.5 154.5 Q140 129 165 109 Q190 89 224 77 Q258 65 301 65 Q335 65 364.5 73 Q394 81 415.5 94.5 Q437 108 449.5 126.5 Q462 145 462 166 Q462 208 432.5 231.5 Q403 255 337 267 L212 290 Q37 323 37 458 Q37 543 101 592.5 Q165 642 277 642 Q336 642 379 632.5 Q422 623 453 603 Q484 583 503.5 550.5 Q523 518 534 471 L449 451 Q436 511 394.5 538 Q353 565 278 565 Q208 565 167 537 Q126 509 126 463 Q126 439 140.5 423 Q155 407 175 396 Q195 385 216 379.5 Q237 374 251 371 L365 350 Q406 342 440.5 330.5 Q475 319 499.5 299.5 Q524 280 537.5 248.5 Q551 217 551 170 Z " />
<glyph glyph-name="uni0161" unicode="&#x161;" horiz-adv-x="420" d="M160 504 L80 630 L147 630 L208 563 L268 630 L336 630 L256 504 L160 504 Z M263 252 Q292 246 316.5 237.5 Q341 229 358.5 214 Q376 199 385.5 176.5 Q395 154 395 121 Q395 84 379 58.5 Q363 33 337.5 17.5 Q312 2 280.5 -5 Q249 -12 217 -12 Q137 -12 84 26.5 Q31 65 20 129 L97 146 Q104 103 140.5 81 Q177 59 218 59 Q259 59 286 76.5 Q313 94 313 118 Q313 143 299 154 Q290 162 275.5 166 Q261 170 240 174 L156 189 Q105 197 67.5 228 Q30 259 30 314 Q30 350 45 375.5 Q60 401 84 417 Q108 433 139 440 Q170 447 201 447 Q284 447 325.5 419 Q367 391 384 325 L307 307 Q299 343 274.5 359.5 Q250 376 202 376 Q160 376 137 360 Q114 344 114 317 Q114 304 121 294.5 Q128 285 139 279.5 Q150 274 162.5 271 Q175 268 186 266 L263 252 Z " />
<glyph glyph-name="uni0162" unicode="&#x162;" horiz-adv-x="585" d="M23 630 L562 630 L562 554 L339 554 L339 0 L247 0 L247 554 L23 554 L23 630 Z M339 -50 L339 -116 Q338 -170 316.5 -185 Q295 -200 246 -200 L246 -156 Q272 -156 280.5 -148.5 Q289 -141 289 -128 L246 -128 L246 -50 L339 -50 Z " />
<glyph glyph-name="uni0163" unicode="&#x163;" horiz-adv-x="329" d="M263 -38 L263 -104 Q263 -158 241 -173 Q219 -188 170 -188 L170 -144 Q195 -144 204.5 -136.5 Q214 -129 213 -116 L170 -116 L170 -38 L263 -38 Z M314 373 L193 373 L193 109 Q193 62 239 62 Q254 62 269 66 Q284 70 298 76 L305 1 Q298 -1 290.5 -3 Q283 -5 275 -7 Q250 -12 234 -12 Q172 -12 137.5 23 Q103 58 103 118 L103 373 L3 373 L3 436 L5 436 Q40 436 59.5 442.5 Q79 449 88.5 463.5 Q98 478 100.5 501 Q103 524 103 557 L103 571 L193 571 Q195 550 195 527 Q194 506 190.5 483 Q187 460 178 436 L314 436 L314 373 Z " />
<glyph glyph-name="uni0164" unicode="&#x164;" horiz-adv-x="585" d="M245 677 L165 803 L232 803 L293 737 L353 803 L421 803 L341 677 L245 677 Z M23 630 L23 555 L23 554 L247 554 L247 0 L339 0 L339 554 L562 554 L562 555 L562 630 L23 630 Z " />
<glyph glyph-name="uni0165" unicode="&#x165;" horiz-adv-x="334" d="M230 495 L245 621 L343 621 L285 495 L230 495 Z M314 373 L193 373 L193 109 Q193 62 239 62 Q254 62 269 66 Q284 70 298 76 L305 1 Q298 -1 290.5 -3 Q283 -5 275 -7 Q250 -12 234 -12 Q172 -12 137.5 23 Q103 58 103 118 L103 373 L3 373 L3 436 L5 436 Q40 436 59.5 442.5 Q79 449 88.5 463.5 Q98 478 100.5 501 Q103 524 103 557 L103 571 L193 571 Q195 550 195 527 Q194 506 190.5 483 Q187 460 178 436 L314 436 L314 373 Z " />
<glyph glyph-name="uni0166" unicode="&#x166;" horiz-adv-x="585" d="M23 630 L23 555 L23 554 L247 554 L247 362 L101 362 L101 286 L247 286 L247 0 L339 0 L339 286 L484 286 L484 362 L339 362 L339 554 L562 554 L562 555 L562 630 L23 630 Z " />
<glyph glyph-name="uni0167" unicode="&#x167;" horiz-adv-x="329" d="M314 373 L193 373 L193 260 L303 260 L303 194 L193 194 L193 109 Q193 62 239 62 Q254 62 269 66 Q284 70 298 76 L305 1 Q298 -1 290.5 -3 Q283 -5 275 -7 Q264 -10 253.5 -11 Q243 -12 234 -12 Q172 -12 137.5 23 Q103 58 103 118 L103 194 L15 194 L15 260 L103 260 L103 373 L3 373 L3 436 L5 436 Q40 436 59.5 442.5 Q79 449 88.5 463.5 Q98 478 100.5 501 Q103 524 103 557 L103 571 L193 571 Q195 550 195 527 Q194 506 190.5 483 Q187 460 178 436 L314 436 L314 373 Z " />
<glyph glyph-name="uni0168" unicode="&#x168;" horiz-adv-x="611" d="M156 675 Q156 731 176.5 764.5 Q197 798 241 798 Q261 798 276.5 790 Q292 782 305 772 Q318 762 330.5 754 Q343 746 358 746 Q379 746 386.5 757 Q394 768 396 795 L455 795 Q455 739 434 705.5 Q413 672 370 672 Q349 672 333.5 680 Q318 688 305 697.5 Q292 707 279.5 715 Q267 723 252 723 Q231 723 223.5 712.5 Q216 702 214 675 L156 675 Z M561 240 Q561 171 541 123 Q521 75 486.5 45 Q452 15 405 1.5 Q358 -12 305 -12 Q252 -12 205.5 1.5 Q159 15 124.5 45 Q90 75 70 123 Q50 171 50 240 L50 630 L142 630 L142 264 Q142 162 182 115 Q222 68 305 68 Q388 68 428.5 115 Q469 162 469 263 L469 630 L561 630 L561 240 Z " />
<glyph glyph-name="uni0169" unicode="&#x169;" horiz-adv-x="481" d="M85 506 Q85 562 105.5 595.5 Q126 629 170 629 Q190 629 206.5 620 Q223 611 237.5 599.5 Q252 588 265.5 579 Q279 570 294 570 Q315 570 322.5 584.5 Q330 599 332 626 L384 626 Q384 570 363 536.5 Q342 503 299 503 Q278 503 261.5 512 Q245 521 230.5 532.5 Q216 544 202.5 553 Q189 562 174 562 Q153 562 145.5 547.5 Q138 533 136 506 L85 506 Z M207 -12 Q126 -12 85.5 35.5 Q45 83 45 159 L45 436 L136 436 L136 169 Q136 120 156 91 Q176 62 224 62 Q246 62 266.5 70.5 Q287 79 303.5 94 Q320 109 330 130.5 Q340 152 340 179 L340 436 L431 436 L431 0 L354 0 L340 77 Q325 39 287 13.5 Q249 -12 207 -12 Z " />
<glyph glyph-name="uni016A" unicode="&#x16a;" horiz-adv-x="611" d="M173 762 L438 762 L438 685 L173 685 L173 762 Z M561 240 Q561 171 541 123 Q521 75 486.5 45 Q452 15 405 1.5 Q358 -12 305 -12 Q252 -12 205.5 1.5 Q159 15 124.5 45 Q90 75 70 123 Q50 171 50 240 L50 630 L142 630 L142 264 Q142 162 182 115 Q222 68 305 68 Q388 68 428.5 115 Q469 162 469 263 L469 630 L561 630 L561 240 Z " />
<glyph glyph-name="uni016B" unicode="&#x16b;" horiz-adv-x="481" d="M103 578 L366 578 L366 515 L103 515 L103 578 Z M207 -12 Q126 -12 85.5 35.5 Q45 83 45 159 L45 436 L136 436 L136 169 Q136 120 156 91 Q176 62 224 62 Q246 62 266.5 70.5 Q287 79 303.5 94 Q320 109 330 130.5 Q340 152 340 179 L340 436 L431 436 L431 0 L354 0 L340 77 Q325 39 287 13.5 Q249 -12 207 -12 Z " />
<glyph glyph-name="uni016C" unicode="&#x16c;" horiz-adv-x="611" d="M362 804 L425 804 Q425 741 394 707 Q363 673 305 673 Q248 673 217 707 Q186 741 186 804 L249 804 Q249 772 261.5 754 Q274 736 305 736 Q337 736 349.5 754 Q362 772 362 804 Z M561 630 L561 240 Q561 171 541 123 Q521 75 486.5 45 Q452 15 405 1.5 Q358 -12 305 -12 Q252 -12 205.5 1.5 Q159 15 124.5 45 Q90 75 70 123 Q50 171 50 240 L50 630 L142 630 L142 264 Q142 162 182 115 Q222 68 305 68 Q388 68 428.5 115 Q469 162 469 263 L469 630 L561 630 Z " />
<glyph glyph-name="uni016D" unicode="&#x16d;" horiz-adv-x="481" d="M358 633 Q358 570 326.5 535.5 Q295 501 238 501 Q181 501 149.5 535.5 Q118 570 118 633 L181 633 Q181 601 194 582.5 Q207 564 238 564 Q269 564 282 582.5 Q295 601 295 633 L358 633 Z M207 -12 Q126 -12 85.5 35.5 Q45 83 45 159 L45 436 L136 436 L136 169 Q136 120 156 91 Q176 62 224 62 Q246 62 266.5 70.5 Q287 79 303.5 94 Q320 109 330 130.5 Q340 152 340 179 L340 436 L431 436 L431 0 L354 0 L340 77 Q325 39 287 13.5 Q249 -12 207 -12 Z " />
<glyph glyph-name="uni016E" unicode="&#x16e;" horiz-adv-x="611" d="M305 843 Q345 843 372 816.5 Q399 790 399 752 Q399 713 372 686 Q345 659 305 659 Q266 659 239 686 Q212 713 212 752 Q212 790 239 816.5 Q266 843 305 843 Z M352 752 Q352 773 338.5 787 Q325 801 305 801 Q285 801 272 787 Q259 773 259 752 Q259 730 272 716 Q285 702 305 702 Q326 702 339 715.5 Q352 729 352 752 Z M561 630 L561 240 Q561 171 541 123 Q521 75 486.5 45 Q452 15 405 1.5 Q358 -12 305 -12 Q252 -12 205.5 1.5 Q159 15 124.5 45 Q90 75 70 123 Q50 171 50 240 L50 630 L142 630 L142 264 Q142 162 182 115 Q222 68 305 68 Q388 68 428.5 115 Q469 162 469 263 L469 630 L561 630 Z " />
<glyph glyph-name="uni016F" unicode="&#x16f;" horiz-adv-x="481" d="M332 593 Q332 555 304.5 528 Q277 501 238 501 Q198 501 171 528 Q144 555 144 593 Q144 632 171 658.5 Q198 685 238 685 Q277 685 304.5 658.5 Q332 632 332 593 Z M238 643 Q218 643 204.5 629 Q191 615 191 593 Q191 571 204.5 557 Q218 543 238 543 Q258 543 271.5 557 Q285 571 285 593 Q285 615 271.5 629 Q258 643 238 643 Z M207 -12 Q126 -12 85.5 35.5 Q45 83 45 159 L45 436 L136 436 L136 169 Q136 120 156 91 Q176 62 224 62 Q246 62 266.5 70.5 Q287 79 303.5 94 Q320 109 330 130.5 Q340 152 340 179 L340 436 L431 436 L431 0 L354 0 L340 77 Q325 39 287 13.5 Q249 -12 207 -12 Z " />
<glyph glyph-name="uni0170" unicode="&#x170;" horiz-adv-x="611" d="M205 677 L259 803 L364 803 L267 677 L205 677 Z M343 677 L397 803 L502 803 L405 677 L343 677 Z M561 240 Q561 171 541 123 Q521 75 486.5 45 Q452 15 405 1.5 Q358 -12 305 -12 Q252 -12 205.5 1.5 Q159 15 124.5 45 Q90 75 70 123 Q50 171 50 240 L50 630 L142 630 L142 264 Q142 162 182 115 Q222 68 305 68 Q388 68 428.5 115 Q469 162 469 263 L469 630 L561 630 L561 240 Z " />
<glyph glyph-name="uni0171" unicode="&#x171;" horiz-adv-x="483" d="M136 504 L190 630 L295 630 L198 504 L136 504 Z M274 504 L328 630 L433 630 L336 504 L274 504 Z M207 -12 Q126 -12 85.5 35.5 Q45 83 45 159 L45 436 L136 436 L136 169 Q136 120 156 91 Q176 62 224 62 Q246 62 266.5 70.5 Q287 79 303.5 94 Q320 109 330 130.5 Q340 152 340 179 L340 436 L431 436 L431 0 L354 0 L340 77 Q325 39 287 13.5 Q249 -12 207 -12 Z " />
<glyph glyph-name="uni0172" unicode="&#x172;" horiz-adv-x="596" d="M465 630 L546 630 L546 234 Q546 128 500 71.5 Q454 15 381 -3 Q339 -39 321 -61 Q303 -83 303 -105 Q303 -135 339 -135 Q353 -135 366.5 -126.5 Q380 -118 392 -112 L392 -165 Q379 -173 361.5 -180 Q344 -187 317 -187 Q284 -187 262.5 -170 Q241 -153 241 -120 Q241 -88 263.5 -61.5 Q286 -35 317 -11 Q311 -12 298 -12 Q247 -12 201.5 1.5 Q156 15 122.5 44 Q89 73 69.5 120 Q50 167 50 234 L50 630 L131 630 L131 247 Q131 149 174.5 103.5 Q218 58 298 58 Q379 58 422 103.5 Q465 149 465 248 L465 630 Z " />
<glyph glyph-name="uni0173" unicode="&#x173;" horiz-adv-x="503" d="M460 -84 L463 -143 Q449 -153 429 -159 Q409 -165 388 -165 Q356 -165 331 -149.5 Q306 -134 307 -95 Q307 -68 323 -44.5 Q339 -21 363 0 L354 0 L340 76 Q325 38 287 12.5 Q249 -13 207 -13 Q126 -13 85.5 35 Q45 83 45 158 L45 436 L135 436 L135 169 Q135 120 155.5 91 Q176 62 223 62 Q245 62 266 70 Q287 78 303.5 93 Q320 108 330 129.5 Q340 151 340 178 L340 436 L431 436 L431 0 Q401 -28 388.5 -45.5 Q376 -63 376 -80 Q377 -94 384 -100 Q391 -106 402 -106 Q418 -106 435 -98 Q452 -90 460 -84 Z " />
<glyph glyph-name="uni0174" unicode="&#x174;" horiz-adv-x="813" d="M454 803 L534 677 L466 677 L406 743 L345 677 L278 677 L358 803 L454 803 Z M713 630 L591 90 L587 90 L465 630 L347 630 L225 90 L221 90 L99 630 L6 630 L155 0 L281 0 L404 548 L408 548 L531 0 L657 0 L807 630 L713 630 Z " />
<glyph glyph-name="uni0175" unicode="&#x175;" horiz-adv-x="655" d="M368 630 L448 504 L380 504 L320 571 L259 504 L192 504 L272 630 L368 630 Z M559 436 L473 96 L470 96 L385 436 L270 436 L184 80 L181 80 L96 436 L3 436 L130 0 L235 0 L325 347 L329 347 L420 0 L524 0 L652 436 L559 436 Z " />
<glyph glyph-name="uni0176" unicode="&#x176;" horiz-adv-x="586" d="M251 803 L171 677 L238 677 L299 744 L359 677 L427 677 L347 803 L251 803 Z M477 629 L293 328 L109 629 L6 629 L247 249 L247 0 L339 0 L339 249 L580 629 L477 629 Z " />
<glyph glyph-name="uni0177" unicode="&#x177;" horiz-adv-x="448" d="M259 630 L339 504 L279 504 L211 578 L143 504 L83 504 L163 630 L259 630 Z M350 436 L445 436 L250 -54 Q238 -85 225.5 -110.5 Q213 -136 195 -153.5 Q177 -171 152.5 -180.5 Q128 -190 91 -190 Q60 -190 28 -181 L28 -112 Q35 -114 44 -115 Q51 -116 60 -117 Q69 -118 78 -118 Q114 -118 134 -102 Q154 -86 171 -43 Q172 -41 174 -35.5 Q176 -30 178 -23 Q181 -11 177 -1 L3 436 L98 436 L222 95 L226 95 L350 436 Z " />
<glyph glyph-name="uni0178" unicode="&#x178;" horiz-adv-x="586" d="M170 782 L275 782 L275 677 L170 677 L170 782 Z M323 782 L428 782 L428 677 L323 677 L323 782 Z M477 629 L293 328 L109 629 L6 629 L247 249 L247 0 L339 0 L339 249 L580 629 L477 629 Z " />
<glyph glyph-name="uni0179" unicode="&#x179;" horiz-adv-x="570" d="M261 677 L315 803 L421 803 L324 677 L261 677 Z M147 76 L540 76 L540 0 L30 0 L30 86 L416 554 L36 554 L36 630 L532 630 L532 543 L147 76 Z " />
<glyph glyph-name="uni017A" unicode="&#x17a;" horiz-adv-x="411" d="M175 504 L229 630 L335 630 L238 504 L175 504 Z M130 74 L382 74 L382 0 L29 0 L29 72 L266 364 L33 364 L33 438 L375 438 L375 376 L130 74 Z " />
<glyph glyph-name="uni017B" unicode="&#x17b;" horiz-adv-x="570" d="M148 73 L540 73 L540 0 L30 0 L30 83 L417 551 L37 551 L37 626 L532 626 L532 541 L148 73 Z M233 783 L338 783 L338 681 L233 681 L233 783 Z " />
<glyph glyph-name="uni017C" unicode="&#x17c;" horiz-adv-x="411" d="M153 633 L258 633 L258 528 L153 528 L153 633 Z M130 74 L382 74 L382 0 L29 0 L29 72 L266 364 L33 364 L33 438 L375 438 L375 376 L130 74 Z " />
<glyph glyph-name="uni017D" unicode="&#x17d;" horiz-adv-x="570" d="M246 677 L166 803 L233 803 L294 736 L354 803 L422 803 L342 677 L246 677 Z M147 76 L540 76 L540 0 L30 0 L30 86 L416 554 L36 554 L36 630 L532 630 L532 543 L147 76 Z " />
<glyph glyph-name="uni017E" unicode="&#x17e;" horiz-adv-x="411" d="M157 504 L77 630 L145 630 L205 564 L266 630 L333 630 L253 504 L157 504 Z M130 74 L382 74 L382 0 L29 0 L29 72 L266 364 L33 364 L33 438 L375 438 L375 376 L130 74 Z " />
<glyph glyph-name="uni0192" unicode="&#x192;" horiz-adv-x="491" d="M474 619 L437 542 Q432 545 426 547 Q421 549 414.5 550.5 Q408 552 400 552 Q380 552 359.5 537 Q339 522 328 474 L308 380 L418 380 L417 301 L292 301 L235 44 Q226 2 208.5 -25 Q191 -52 169 -67.5 Q147 -83 123 -88.5 Q99 -94 77 -94 Q49 -94 28 -88.5 Q7 -83 0 -80 L37 -4 Q61 -12 75 -12 Q107 -12 122.5 11 Q138 34 146 64 L198 301 L112 301 L116 380 L215 380 L239 495 Q250 538 266.5 565.5 Q283 593 303 609 Q323 625 345 631.5 Q367 638 389 638 Q414 638 436.5 632 Q459 626 474 619 Z " />
<glyph glyph-name="uni01FA" unicode="&#x1fa;" horiz-adv-x="617" d="M308 822 Q348 822 375 797.5 Q402 773 402 738 Q402 703 375 678.5 Q348 654 308 654 Q269 654 242 678.5 Q215 703 215 738 Q215 773 242 797.5 Q269 822 308 822 Z M308 699 Q329 699 342 710 Q355 721 355 738 Q355 755 341.5 766 Q328 777 308 777 Q288 777 275 766 Q262 755 262 738 Q262 721 275 710 Q288 699 308 699 Z M412 936 L340 843 L277 843 L317 936 L412 936 Z M515 0 L450 175 L167 175 L102 0 L3 0 L255 630 L362 630 L614 0 L515 0 Z M195 248 L422 248 L310 548 L306 548 L195 248 Z " />
<glyph glyph-name="uni01FB" unicode="&#x1fb;" horiz-adv-x="451" d="M232 639 Q272 639 299 615 Q326 591 326 556 Q326 521 299 496.5 Q272 472 232 472 Q192 472 165 496.5 Q138 521 138 556 Q138 591 165 615 Q192 639 232 639 Z M232 516 Q253 516 266 527 Q279 538 279 556 Q279 573 265.5 583.5 Q252 594 232 594 Q212 594 199 583.5 Q186 573 186 556 Q186 539 199 527.5 Q212 516 232 516 Z M335 753 L263 660 L201 660 L241 753 L335 753 Z M395 77 Q395 62 403.5 57.5 Q412 53 423 53 Q430 53 438 55 Q442 55 445 56 L445 -1 Q431 -8 418 -10 Q405 -12 394 -12 Q356 -12 337 8 Q318 28 310 47 Q293 30 260.5 9 Q228 -12 180 -12 Q141 -12 112 -0.5 Q83 11 64 29.5 Q45 48 36 71 Q27 94 27 117 Q27 159 43 184 Q59 209 84.5 224 Q110 239 141 246.5 Q172 254 202 259 Q244 267 274.5 276.5 Q305 286 305 315 Q305 342 285 356.5 Q265 371 230 373 Q198 373 171 359 Q144 345 136 307 L46 316 Q48 327 55.5 349 Q63 371 82.5 393 Q102 415 137 431 Q172 447 229 447 Q264 447 294 439 Q324 431 346.5 414 Q369 397 382 370 Q395 343 395 305 L395 77 Z M305 165 L305 229 Q288 222 260.5 214.5 Q233 207 215 202 Q200 199 183 194 Q166 189 152 181 Q138 173 128.5 160 Q119 147 119 128 Q119 94 141 80 Q163 66 194 66 Q239 66 272 91.5 Q305 117 305 165 Z " />
<glyph glyph-name="uni01FC" unicode="&#x1fc;" horiz-adv-x="943" d="M649 677 L552 803 L658 803 L712 677 L649 677 Z M551 76 L551 283 L857 283 L857 359 L551 359 L551 554 L899 554 L899 630 L437 630 L6 0 L118 0 L235 175 L459 175 L459 0 L910 0 L910 76 L551 76 Z M277 250 L459 523 L459 250 L277 250 Z " />
<glyph glyph-name="uni01FD" unicode="&#x1fd;" horiz-adv-x="762" d="M348 504 L402 630 L500 630 L403 504 L348 504 Z M533 60 Q576 60 608 80 Q640 100 657 139 L736 120 Q713 58 657 24 Q601 -10 531 -10 Q467 -10 419 13.5 Q371 37 342 81 Q329 55 307 35 Q286 16 255.5 2 Q225 -12 178 -12 Q139 -12 110 -0.5 Q81 11 62 29.5 Q43 48 34 71 Q25 94 25 117 Q25 160 42 185.5 Q59 211 85.5 226 Q112 241 144 248 Q176 255 206 260 Q246 267 274.5 277 Q303 287 303 315 Q303 341 283 356 Q263 371 228 372 Q196 372 169 358.5 Q142 345 134 307 L44 316 Q46 327 53.5 349 Q61 371 80.5 393 Q100 415 135 431 Q170 447 227 447 Q267 447 306.5 434.5 Q346 422 370 388 Q404 422 444 434.5 Q484 447 530 447 Q574 447 611.5 431 Q649 415 676.5 387 Q704 359 720 320 Q736 281 736 236 L736 198 L396 198 Q403 135 438 97.5 Q473 60 533 60 Z M521 376 Q463 376 434 342 Q405 308 398 254 L644 254 Q637 306 607.5 341 Q578 376 521 376 Z M303 229 Q286 222 258.5 214 Q231 206 213 202 Q198 198 181 193.5 Q164 189 150 180.5 Q136 172 126.5 159.5 Q117 147 117 128 Q117 94 139 80 Q161 66 192 66 Q237 66 270 91.5 Q303 117 303 165 L303 229 Z " />
<glyph glyph-name="uni01FE" unicode="&#x1fe;" horiz-adv-x="686" d="M312 677 L366 803 L471 803 L374 677 L312 677 Z M571 557 Q613 513 636.5 454 Q660 395 660 326 Q660 257 636 197 Q612 137 569 93.5 Q526 50 468.5 25 Q411 0 344 0 Q290 0 243.5 14.5 Q197 29 159 55 L98 -20 L49 17 L113 95 Q71 139 48.5 198 Q26 257 26 326 Q26 396 49 456 Q72 516 114 560 Q156 604 214.5 629 Q273 654 344 654 Q395 654 441 639 Q487 624 525 597 L588 674 L637 637 L571 557 Z M121 326 Q121 276 132.5 234.5 Q144 193 167 161 L473 534 Q447 553 414.5 563.5 Q382 574 344 574 Q288 574 246 555.5 Q204 537 176.5 504 Q149 471 135 425.5 Q121 380 121 326 Z M344 80 Q395 80 436 98 Q477 116 505.5 148.5 Q534 181 549.5 226.5 Q565 272 565 326 Q565 426 516 490 L210 118 Q263 80 344 80 Z " />
<glyph glyph-name="uni01FF" unicode="&#x1ff;" horiz-adv-x="499" d="M283 504 L221 504 L275 630 L380 630 L283 504 Z M474 441 L418 373 Q444 344 458 304.5 Q472 265 472 217 Q472 166 455 123.5 Q438 81 408.5 51 Q379 21 338.5 4.5 Q298 -12 251 -12 Q181 -12 128 22 L74 -43 L25 -5 L81 62 Q55 93 41 132 Q27 171 27 217 Q27 266 43 308 Q59 350 88.5 381 Q118 412 159.5 429.5 Q201 447 251 447 Q318 447 372 413 L425 478 L474 441 Z M119 218 Q119 166 137 130 L321 353 Q292 373 250 373 Q188 373 153.5 331.5 Q119 290 119 218 Z M380 218 Q380 269 362 305 L178 82 Q207 62 250 62 Q310 62 345 104 Q380 146 380 218 Z " />
<glyph glyph-name="uni0218" unicode="&#x218;" horiz-adv-x="585" d="M332 -49 L332 -119 Q331 -167 312 -183 Q293 -199 260 -199 Q255 -199 250 -199 Q245 -199 239 -198 L239 -157 Q264 -157 273 -149.5 Q282 -142 282 -130 L239 -130 L239 -49 L332 -49 Z M550 170 Q550 85 483 36.5 Q416 -12 300 -12 Q186 -12 110.5 41.5 Q35 95 21 186 L106 206 Q110 180 124.5 154.5 Q139 129 164 109 Q189 89 223 77 Q257 65 300 65 Q334 65 363.5 73 Q393 81 414.5 94.5 Q436 108 448.5 126.5 Q461 145 461 166 Q461 208 431.5 231.5 Q402 255 336 267 L211 290 Q36 323 36 458 Q36 543 100 592.5 Q164 642 276 642 Q335 642 378 632.5 Q421 623 452 603 Q483 583 502.5 550.5 Q522 518 533 471 L448 451 Q435 511 393.5 538 Q352 565 277 565 Q207 565 166 537 Q125 509 125 463 Q125 439 139.5 423 Q154 407 174 396 Q194 385 215 379.5 Q236 374 250 371 L364 350 Q405 342 439.5 330.5 Q474 319 498.5 299.5 Q523 280 536.5 248.5 Q550 217 550 170 Z " />
<glyph glyph-name="uni0219" unicode="&#x219;" horiz-adv-x="420" d="M254 -50 L254 -116 Q254 -169 232 -184.5 Q210 -200 162 -200 L162 -156 Q187 -156 196 -148.5 Q205 -141 204 -128 L162 -128 L162 -50 L254 -50 Z M263 252 Q292 246 316.5 237.5 Q341 229 358.5 214 Q376 199 385.5 176.5 Q395 154 395 121 Q395 84 379 58.5 Q363 33 337.5 17.5 Q312 2 280.5 -5 Q249 -12 217 -12 Q137 -12 84 26.5 Q31 65 20 129 L97 146 Q104 103 140.5 81 Q177 59 218 59 Q259 59 286 76.5 Q313 94 313 118 Q313 143 299 154 Q290 162 275.5 166 Q261 170 240 174 L156 189 Q105 197 67.5 228 Q30 259 30 314 Q30 350 45 375.5 Q60 401 84 417 Q108 433 139 440 Q170 447 201 447 Q284 447 325.5 419 Q367 391 384 325 L307 307 Q299 343 274.5 359.5 Q250 376 202 376 Q160 376 137 360 Q114 344 114 317 Q114 304 121 294.5 Q128 285 139 279.5 Q150 274 162.5 271 Q175 268 186 266 L263 252 Z " />
<glyph glyph-name="uni0237" unicode="&#x237;" horiz-adv-x="185" d="M135 436 L135 -59 Q135 -122 99.5 -155.5 Q64 -189 4 -189 Q-14 -189 -32 -185.5 Q-50 -182 -67 -176 L-60 -101 Q-46 -107 -31 -111 Q-16 -115 -1 -115 Q45 -115 45 -68 L45 436 L135 436 Z " />
<glyph glyph-name="uni02C6" unicode="&#x2c6;" horiz-adv-x="468" d="M282 630 L362 504 L295 504 L234 571 L173 504 L106 504 L186 630 L282 630 Z " />
<glyph glyph-name="uni02C7" unicode="&#x2c7;" horiz-adv-x="493" d="M186 508 L106 634 L173 634 L234 567 L295 634 L362 634 L282 508 L186 508 Z " />
<glyph glyph-name="uni02D8" unicode="&#x2d8;" horiz-adv-x="484" d="M299 636 L362 636 Q362 573 330.5 538.5 Q299 504 242 504 Q185 504 153.5 538.5 Q122 573 122 636 L185 636 Q185 603 198 585 Q211 567 242 567 Q273 567 286 585 Q299 603 299 636 Z " />
<glyph glyph-name="uni02D9" unicode="&#x2d9;" horiz-adv-x="510" d="M188 641 L292 641 L292 536 L188 536 L188 641 Z " />
<glyph glyph-name="uni02DA" unicode="&#x2da;" horiz-adv-x="496" d="M244 656 Q283 656 307 631.5 Q331 607 331 572 Q331 537 307 512.5 Q283 488 244 488 Q205 488 181 512.5 Q157 537 157 572 Q157 607 181 631.5 Q205 656 244 656 Z M244 524 Q267 524 278.5 537.5 Q290 551 290 573 Q290 593 278.5 606.5 Q267 620 244 620 Q221 620 209.5 606.5 Q198 593 198 573 Q198 551 209.5 537.5 Q221 524 244 524 Z " />
<glyph glyph-name="uni02DB" unicode="&#x2db;" horiz-adv-x="234" d="M164 -100 L168 -160 Q154 -170 134 -176 Q114 -182 92 -182 Q61 -182 35.5 -166 Q10 -150 11 -112 Q11 -74 39.5 -44 Q68 -14 103 12 L167 12 L160 6 Q115 -33 97.5 -54.5 Q80 -76 80 -97 Q81 -111 88 -116.5 Q95 -122 106 -122 Q121 -122 138.5 -114 Q156 -106 164 -100 Z " />
<glyph glyph-name="uni02DC" unicode="&#x2dc;" horiz-adv-x="504" d="M100 508 Q100 564 120.5 597.5 Q141 631 185 631 Q205 631 220.5 623 Q236 615 249 605 Q262 595 274.5 587 Q287 579 302 579 Q323 579 330.5 590 Q338 601 340 628 L399 628 Q399 572 378 538.5 Q357 505 314 505 Q293 505 277.5 513 Q262 521 249 531 Q236 541 223.5 549 Q211 557 196 557 Q175 557 167.5 546 Q160 535 158 508 L100 508 Z " />
<glyph glyph-name="uni02DD" unicode="&#x2dd;" horiz-adv-x="481" d="M92 504 L146 630 L252 630 L155 504 L92 504 Z M230 504 L284 630 L389 630 L292 504 L230 504 Z " />
<glyph glyph-name="uni1E80" unicode="&#x1e80;" horiz-adv-x="813" d="M383 677 L286 803 L392 803 L446 677 L383 677 Z M713 630 L591 90 L587 90 L465 630 L347 630 L225 90 L221 90 L99 630 L6 630 L155 0 L281 0 L404 548 L408 548 L531 0 L657 0 L807 630 L713 630 Z " />
<glyph glyph-name="uni1E81" unicode="&#x1e81;" horiz-adv-x="655" d="M298 504 L201 630 L307 630 L361 504 L298 504 Z M559 436 L473 96 L470 96 L385 436 L270 436 L184 80 L181 80 L96 436 L3 436 L130 0 L235 0 L325 347 L329 347 L420 0 L524 0 L652 436 L559 436 Z " />
<glyph glyph-name="uni1E82" unicode="&#x1e82;" horiz-adv-x="813" d="M370 677 L424 803 L530 803 L433 677 L370 677 Z M713 630 L591 90 L587 90 L465 630 L347 630 L225 90 L221 90 L99 630 L6 630 L155 0 L281 0 L404 548 L408 548 L531 0 L657 0 L807 630 L713 630 Z " />
<glyph glyph-name="uni1E83" unicode="&#x1e83;" horiz-adv-x="655" d="M286 504 L340 630 L446 630 L349 504 L286 504 Z M559 436 L473 96 L470 96 L385 436 L270 436 L184 80 L181 80 L96 436 L3 436 L130 0 L235 0 L325 347 L329 347 L420 0 L524 0 L652 436 L559 436 Z " />
<glyph glyph-name="uni1E84" unicode="&#x1e84;" horiz-adv-x="813" d="M275 681 L379 681 L379 786 L275 786 L275 681 Z M426 681 L531 681 L531 786 L426 786 L426 681 Z M713 630 L591 90 L587 90 L465 630 L347 630 L225 90 L221 90 L99 630 L6 630 L155 0 L281 0 L404 548 L408 548 L531 0 L657 0 L807 630 L713 630 Z " />
<glyph glyph-name="uni1E85" unicode="&#x1e85;" horiz-adv-x="655" d="M191 529 L296 528 L296 633 L191 633 L191 529 Z M344 528 L448 528 L448 633 L344 633 L344 528 Z M559 436 L473 96 L470 96 L385 436 L270 436 L184 80 L181 80 L96 436 L3 436 L130 0 L235 0 L325 347 L329 347 L420 0 L524 0 L652 436 L559 436 Z " />
<glyph glyph-name="uni1EF2" unicode="&#x1ef2;" horiz-adv-x="586" d="M341 677 L287 803 L181 803 L278 677 L341 677 Z M477 629 L293 328 L109 629 L6 629 L247 249 L247 0 L339 0 L339 249 L580 629 L477 629 Z " />
<glyph glyph-name="uni1EF3" unicode="&#x1ef3;" horiz-adv-x="452" d="M257 504 L194 504 L97 630 L203 630 L257 504 Z M354 436 L449 436 L254 -54 Q242 -85 229.5 -110.5 Q217 -136 199 -153.5 Q181 -171 156.5 -180.5 Q132 -190 95 -190 Q64 -190 32 -181 L32 -112 Q39 -114 48 -115 Q55 -116 64 -117 Q73 -118 82 -118 Q118 -118 138 -102 Q158 -86 175 -43 Q176 -41 178 -35.5 Q180 -30 182 -23 Q185 -11 181 -1 L7 436 L102 436 L226 95 L230 95 L354 436 Z " />
<glyph glyph-name="uni2013" unicode="&#x2013;" horiz-adv-x="524" d="M472 220 L52 220 L52 288 L472 288 L472 220 Z " />
<glyph glyph-name="uni2014" unicode="&#x2014;" horiz-adv-x="1006" d="M52 291 L946 291 L946 215 L52 215 L52 291 Z " />
<glyph glyph-name="uni2018" unicode="&#x2018;" horiz-adv-x="175" d="M140 448 L35 448 L35 540 Q36 600 58 621.5 Q80 643 140 643 L140 593 Q119 592 105 584.5 Q91 577 91 553 L140 553 L140 448 Z " />
<glyph glyph-name="uni2019" unicode="&#x2019;" horiz-adv-x="175" d="M35 630 L140 630 L140 538 Q139 472 109 451 Q89 435 47 435 Q39 435 35 436 L35 486 Q61 486 74 497 Q84 507 83 525 L35 525 L35 630 Z " />
<glyph glyph-name="uni201A" unicode="&#x201a;" horiz-adv-x="175" d="M35 105 L140 105 L140 13 Q139 -47 117 -68.5 Q95 -90 35 -90 L35 -39 Q61 -39 74 -28 Q84 -18 83 0 L35 0 L35 105 Z " />
<glyph glyph-name="uni201C" unicode="&#x201c;" horiz-adv-x="326" d="M186 452 L186 543 Q187 603 209 624.5 Q231 646 291 646 L291 596 Q264 596 252 584 Q242 575 242 556 L291 556 L291 452 L186 452 Z M145 452 L40 452 L40 543 Q41 603 63 624.5 Q85 646 145 646 L145 596 Q118 596 106 584 Q96 575 96 556 L145 556 L145 452 Z " />
<glyph glyph-name="uni201D" unicode="&#x201d;" horiz-adv-x="326" d="M145 630 L145 539 Q144 479 122 457.5 Q100 436 40 436 L40 486 Q67 486 79 498 Q89 507 88 526 L40 526 L40 630 L145 630 Z M186 630 L291 630 L291 539 Q290 479 268 457.5 Q246 436 186 436 L186 486 Q213 486 225 498 Q235 507 234 526 L186 526 L186 630 Z " />
<glyph glyph-name="uni201E" unicode="&#x201e;" horiz-adv-x="326" d="M140 107 L140 19 Q139 -43 117.5 -66 Q96 -89 35 -89 L35 -41 Q63 -41 74 -31 Q79 -26 81.5 -17 Q84 -8 83 0 L35 0 L35 107 L140 107 Z M181 107 L286 107 L286 19 Q285 -43 263.5 -66 Q242 -89 181 -89 L181 -41 Q209 -41 220 -31 Q225 -26 227.5 -17 Q230 -8 229 0 L181 0 L181 107 Z " />
<glyph glyph-name="uni2020" unicode="&#x2020;" horiz-adv-x="313" d="M288 471 L288 533 L191 533 L191 630 L122 630 L122 533 L25 533 L25 471 L122 471 L122 246 L191 246 L191 471 L288 471 Z " />
<glyph glyph-name="uni2021" unicode="&#x2021;" horiz-adv-x="313" d="M288 471 L288 533 L191 533 L191 630 L122 630 L122 533 L25 533 L25 471 L122 471 L122 403 L25 403 L25 341 L122 341 L122 246 L191 246 L191 341 L288 341 L288 403 L191 403 L191 471 L288 471 Z " />
<glyph glyph-name="uni2022" unicode="&#x2022;" horiz-adv-x="324" d="M161 140 Q110 140 74 174.5 Q38 209 38 264 Q38 318 74 353 Q110 388 161 388 Q214 388 250 353 Q286 318 286 264 Q286 209 250 174.5 Q214 140 161 140 Z " />
<glyph glyph-name="uni2026" unicode="&#x2026;" horiz-adv-x="546" d="M34 104 L139 104 L139 0 L34 0 L34 104 Z M218 104 L323 104 L323 0 L218 0 L218 104 Z M402 104 L506 104 L506 0 L402 0 L402 104 Z " />
<glyph glyph-name="uni2030" unicode="&#x2030;" horiz-adv-x="1130" d="M598 630 L261 -1 L176 -1 L514 630 L598 630 Z M188 296 Q115 296 69.5 344 Q24 392 24 469 Q24 545 69.5 593.5 Q115 642 188 642 Q261 642 307 593.5 Q353 545 353 469 Q353 392 307 344 Q261 296 188 296 Z M108 469 Q108 353 188 353 Q196 353 209.5 355 Q223 357 236.5 367.5 Q250 378 260 402 Q270 426 270 469 Q270 512 260 535.5 Q250 559 236.5 569.5 Q223 580 209.5 582 Q196 584 188 584 Q108 584 108 469 Z M754 161 Q754 84 708 36 Q662 -12 589 -12 Q516 -12 470.5 36 Q425 84 425 161 Q425 237 470.5 285 Q516 333 589 333 Q662 333 708 285 Q754 237 754 161 Z M508 161 Q508 45 589 45 Q597 45 610.5 47 Q624 49 637 59.5 Q650 70 660 94 Q670 118 670 161 Q670 204 660 227.5 Q650 251 637 261.5 Q624 272 610.5 274 Q597 276 589 276 Q508 276 508 161 Z M1116 161 Q1116 84 1070 36 Q1024 -12 950 -12 Q878 -12 832 36 Q786 84 786 161 Q786 237 832 285 Q878 333 950 333 Q1024 333 1070 285 Q1116 237 1116 161 Z M870 161 Q870 45 950 45 Q958 45 971.5 47 Q985 49 998.5 59.5 Q1012 70 1022 94 Q1032 118 1032 161 Q1032 204 1022 227.5 Q1012 251 998.5 261.5 Q985 272 971.5 274 Q958 276 950 276 Q870 276 870 161 Z " />
<glyph glyph-name="uni2039" unicode="&#x2039;" horiz-adv-x="228" d="M190 373 L190 268 L113 202 L190 129 L190 33 L38 170 L38 236 L190 373 Z " />
<glyph glyph-name="uni203A" unicode="&#x203a;" horiz-adv-x="228" d="M38 373 L38 268 L115 202 L38 129 L38 33 L190 170 L190 236 L38 373 Z " />
<glyph glyph-name="uni2044" unicode="&#x2044;" horiz-adv-x="485" d="M400 630 L9 0 L88 0 L479 630 L400 630 Z " />
<glyph glyph-name="uni20AC" unicode="&#x20ac;" horiz-adv-x="665" d="M547 255 L641 255 Q627 126 556.5 57 Q486 -12 366 -12 Q254 -12 185 48.5 Q116 109 96 222 L15 222 L15 284 L89 284 Q88 292 88 299.5 Q88 307 88 315 L88 340 L15 340 L15 401 L95 401 Q114 517 183 579.5 Q252 642 366 642 Q486 642 556.5 572.5 Q627 503 641 375 L547 375 Q537 471 492 516.5 Q447 562 366 562 Q291 562 248.5 522.5 Q206 483 192 401 L378 401 L368 340 L186 340 L186 283 L359 283 L351 222 L193 222 Q207 141 249 104.5 Q291 68 366 68 Q448 68 492.5 113 Q537 158 547 255 Z " />
<glyph glyph-name="uni2117" unicode="&#x2117;" horiz-adv-x="724" d="M35 315 Q35 386 61 446 Q87 506 131 549.5 Q175 593 235 617.5 Q295 642 362 642 Q430 642 489.5 617.5 Q549 593 593 549.5 Q637 506 663 446 Q689 386 689 315 Q689 244 663 184 Q637 124 593 80.5 Q549 37 489.5 12.5 Q430 -12 362 -12 Q295 -12 235 12.5 Q175 37 131 80.5 Q87 124 61 184 Q35 244 35 315 Z M81 315 Q81 254 103 202 Q125 150 163.5 112.5 Q202 75 253 54 Q304 33 362 33 Q420 33 471 54 Q522 75 560.5 112.5 Q599 150 621 202 Q643 254 643 315 Q643 377 621 428.5 Q599 480 560.5 517.5 Q522 555 471 576 Q420 597 362 597 Q304 597 253 576 Q202 555 163.5 517.5 Q125 480 103 428.5 Q81 377 81 315 Z M523 375 Q523 316 486 284 Q449 252 392 252 L299 252 L299 120 L235 120 L235 500 L392 500 Q450 500 486.5 467 Q523 434 523 375 Z M299 446 L299 307 L391 307 Q424 307 440 325 Q457 341 457 376 Q457 409 441 427.5 Q425 446 391 446 L299 446 Z " />
<glyph glyph-name="uni2122" unicode="&#x2122;" horiz-adv-x="609" d="M539 630 L539 370 L489 370 L489 537 L430 370 L394 370 L332 538 L332 370 L282 370 L282 630 L344 630 L412 448 L474 630 L539 630 Z M20 630 L20 586 L107 586 L107 370 L157 370 L157 586 L238 586 L245 586 L245 630 L20 630 Z " />
<glyph glyph-name="uni2153" unicode="&#x2153;" horiz-adv-x="783" d="M124 635 L178 635 L178 244 L102 244 L102 525 Q87 516 62.5 513 Q38 510 21 510 L21 582 Q37 582 53.5 583 Q70 584 84.5 589 Q99 594 109.5 604.5 Q120 615 124 635 Z M586 635 L177 0 L98 0 L507 635 L586 635 Z M753 112 Q753 78 739 54 Q725 30 702 15.5 Q679 1 650.5 -5.5 Q622 -12 592 -12 Q521 -12 480 23.5 Q439 59 439 133 L516 133 Q517 91 534 74 Q551 57 592 57 Q608 57 623 58 Q638 59 649.5 64.5 Q661 70 668 81 Q675 92 675 112 Q673 137 660 148 Q646 158 628 160 Q610 162 592 163 Q584 163 576.5 162.5 Q569 162 562 161 L563 235 Q569 233 576 233 Q583 233 591 233 Q619 233 641 241 Q663 249 663 282 Q663 315 641 323.5 Q619 332 592 332 Q555 332 540.5 315 Q526 298 525 256 L447 256 Q448 327 484.5 364 Q521 401 592 401 Q622 401 649 395 Q676 389 696 375.5 Q716 362 728 339 Q740 316 741 282 Q742 252 727.5 232 Q713 212 701 201 Q725 187 739 163.5 Q753 140 753 112 Z " />
<glyph glyph-name="uni2154" unicode="&#x2154;" horiz-adv-x="842" d="M777 188 Q812 158 812 113 Q811 78 797.5 54 Q784 30 761.5 15.5 Q739 1 710.5 -5.5 Q682 -12 651 -12 Q581 -12 539.5 24.5 Q498 61 498 133 L575 133 Q576 91 593 74 Q610 57 651 57 Q666 57 681 58.5 Q696 60 708 65.5 Q720 71 727 82 Q734 93 734 112 Q733 136 719 148 Q705 159 687 161 Q669 163 651 163 Q643 163 635.5 162.5 Q628 162 621 161 L622 235 Q628 234 635 233.5 Q642 233 650 233 Q690 233 708 246 Q722 258 722 282 Q722 315 700 323.5 Q678 332 651 332 Q614 332 599.5 315 Q585 298 584 256 L506 256 Q509 401 651 401 Q681 401 708 395 Q735 389 755 375.5 Q775 362 787 339 Q799 316 800 282 Q801 252 786.5 232 Q772 212 760 201 Q770 195 777 188 Z M318 317 L318 250 L25 250 L25 298 Q35 307 49.5 319.5 Q64 332 79 344.5 Q94 357 107 368.5 Q120 380 127 386 Q140 397 157.5 412 Q175 427 191 444 Q207 461 217.5 480.5 Q228 500 228 520 Q228 549 212.5 563 Q197 577 169 577 L167 577 Q127 576 113 543 Q99 510 109 471 L33 471 Q25 507 30.5 539 Q36 571 54 595 Q72 619 101 632.5 Q130 646 169 646 Q227 646 266.5 614.5 Q306 583 306 522 Q306 471 272.5 430 Q239 389 197 353 L155 317 L318 317 Z M678 630 L272 0 L193 0 L599 630 L678 630 Z " />
<glyph glyph-name="uni215B" unicode="&#x215b;" horiz-adv-x="749" d="M124 635 L178 635 L178 244 L102 244 L102 525 Q87 516 62.5 513 Q38 510 21 510 L21 582 Q37 582 53.5 583 Q70 584 84.5 589 Q99 594 109.5 604.5 Q120 615 124 635 Z M586 635 L177 0 L98 0 L507 635 L586 635 Z M756 111 Q756 77 742.5 53.5 Q729 30 707 15.5 Q685 1 656.5 -5.5 Q628 -12 598 -12 L595 -12 Q565 -12 536.5 -5.5 Q508 1 486 15.5 Q464 30 450 53.5 Q436 77 436 111 Q436 141 453 162 Q470 183 493 198 Q489 200 484.5 203 Q480 206 476 211 Q465 222 456.5 239 Q448 256 448 285 Q448 316 461 338 Q474 360 495 374 Q516 388 542.5 394.5 Q569 401 596 401 Q624 401 650.5 394.5 Q677 388 697.5 374 Q718 360 731 338 Q744 316 744 285 Q744 257 733.5 234.5 Q723 212 699 198 Q722 185 739 161.5 Q756 138 756 111 Z M506 108 Q506 80 530.5 64.5 Q555 49 597 49 Q639 49 663 64.5 Q687 80 687 108 Q687 126 678 137.5 Q669 149 655.5 155.5 Q642 162 626 164.5 Q610 167 596 167 Q581 167 565.5 164.5 Q550 162 536.5 155.5 Q523 149 514.5 137.5 Q506 126 506 108 Z M598 220 Q634 220 654 236.5 Q674 253 674 282 Q674 302 659.5 321 Q645 340 595 340 Q582 340 568.5 337.5 Q555 335 543.5 329 Q532 323 525 311.5 Q518 300 518 282 Q518 249 543.5 234.5 Q569 220 598 220 Z " />
<glyph glyph-name="uni215C" unicode="&#x215c;" horiz-adv-x="894" d="M265 356 Q265 374 256.5 384.5 Q248 395 235.5 400.5 Q223 406 207.5 407.5 Q192 409 178 410 Q170 410 162 409.5 Q154 409 147 408 L138 406 L138 480 L148 478 Q154 477 161.5 476.5 Q169 476 177 476 Q207 476 230 484 Q253 492 253 528 Q251 563 229.5 572.5 Q208 582 177 582 Q139 582 123.5 564.5 Q108 547 108 502 L107 494 L34 494 L34 502 Q34 573 71 609.5 Q108 646 178 646 Q198 646 219.5 642.5 Q241 639 260 630.5 Q279 622 294.5 608.5 Q310 595 318 574 Q323 562 325.5 550.5 Q328 539 327 528 Q326 496 310.5 475.5 Q295 455 283 446 Q298 438 318 416 Q338 394 338 356 Q338 321 324.5 297.5 Q311 274 288.5 259.5 Q266 245 237 239 Q208 233 178 233 Q104 233 65 270 Q26 307 25 377 L25 385 L99 385 L99 377 Q99 333 117.5 314 Q136 295 178 295 Q194 295 209.5 297 Q225 299 237.5 306 Q250 313 257.5 325 Q265 337 265 356 Z M615 635 L694 635 L285 0 L206 0 L615 635 Z M864 110 Q864 76 850.5 53 Q837 30 815 15.5 Q793 1 764.5 -5.5 Q736 -12 706 -12 L703 -12 Q673 -12 644.5 -6 Q616 0 593.5 14 Q571 28 557.5 51.5 Q544 75 544 110 Q544 141 560.5 161.5 Q577 182 601 198 Q577 213 566.5 234 Q556 255 556 284 Q556 315 568.5 337.5 Q581 360 602 374 Q623 388 649.5 394.5 Q676 401 704 401 Q732 401 758.5 394.5 Q785 388 806 374 Q827 360 839.5 337.5 Q852 315 852 284 Q852 255 841.5 234 Q831 213 807 198 Q831 182 847.5 161.5 Q864 141 864 110 Z M614 107 Q614 80 638.5 64 Q663 48 705 48 Q747 48 770.5 63.5 Q794 79 794 107 Q794 126 785.5 137.5 Q777 149 763.5 155.5 Q750 162 734 164.5 Q718 167 703 167 Q688 167 672 164.5 Q656 162 643.5 155.5 Q631 149 622.5 137 Q614 125 614 107 Z M782 282 Q782 302 767 321 Q752 340 703 340 Q690 340 676.5 337.5 Q663 335 651.5 329 Q640 323 633 311.5 Q626 300 626 282 Q626 248 650.5 234 Q675 220 705 220 Q741 220 761.5 236.5 Q782 253 782 282 Z " />
<glyph glyph-name="uni215D" unicode="&#x215d;" horiz-adv-x="889" d="M610 635 L689 635 L280 0 L201 0 L610 635 Z M859 110 Q859 76 845.5 52.5 Q832 29 810 15 Q788 1 759.5 -5.5 Q731 -12 701 -12 L698 -12 Q668 -12 639.5 -6 Q611 0 588.5 14.5 Q566 29 552.5 52.5 Q539 76 539 110 Q539 141 555.5 161.5 Q572 182 596 198 Q572 213 561.5 234 Q551 255 551 284 Q551 315 563.5 337 Q576 359 597 373.5 Q618 388 644.5 394.5 Q671 401 699 401 Q727 401 754 394.5 Q781 388 801.5 374 Q822 360 834.5 338 Q847 316 847 284 Q847 255 836.5 234 Q826 213 802 198 Q826 182 842.5 161.5 Q859 141 859 110 Z M609 107 Q609 80 633.5 64 Q658 48 700 48 Q742 48 765.5 63.5 Q789 79 789 107 Q789 126 780.5 137.5 Q772 149 758.5 155.5 Q745 162 729 164.5 Q713 167 698 167 Q683 167 667 164.5 Q651 162 638.5 155.5 Q626 149 617.5 137 Q609 125 609 107 Z M777 282 Q777 302 762 321 Q747 340 698 340 Q685 340 671.5 337.5 Q658 335 646.5 329 Q635 323 628 311.5 Q621 300 621 282 Q621 248 645.5 234 Q670 220 700 220 Q736 220 756.5 236.5 Q777 253 777 282 Z M338 380 Q338 312 294.5 273.5 Q251 235 185 235 Q114 236 73.5 273.5 Q33 311 30 382 L30 390 L100 378 L101 373 Q103 336 125.5 315.5 Q148 295 185 295 Q225 295 246 317 Q267 339 267 378 Q267 417 245 439 Q223 461 184 461 Q128 461 109 419 L107 415 L33 427 L34 432 Q34 434 36.5 457 Q39 480 42.5 511.5 Q46 543 50 577.5 Q54 612 57 638 L58 643 L315 643 L315 581 L118 581 L108 494 Q119 502 141 511.5 Q163 521 195 521 Q260 521 299 483.5 Q338 446 338 380 Z " />
<glyph glyph-name="uni215E" unicode="&#x215e;" horiz-adv-x="838" d="M559 635 L638 635 L229 0 L150 0 L559 635 Z M808 110 Q808 76 794.5 52.5 Q781 29 759 15 Q737 1 708.5 -5.5 Q680 -12 650 -12 L647 -12 Q617 -12 588.5 -6 Q560 0 537.5 14.5 Q515 29 501.5 52.5 Q488 76 488 110 Q488 140 505 161 Q522 182 545 198 Q521 213 510.5 234 Q500 255 500 284 Q500 315 512.5 337.5 Q525 360 546 374 Q567 388 593.5 394.5 Q620 401 648 401 Q676 401 703 394.5 Q730 388 750.5 374 Q771 360 783.5 338 Q796 316 796 284 Q796 255 786 234 Q776 213 751 198 Q775 182 791.5 161.5 Q808 141 808 110 Z M558 107 Q558 80 582.5 64 Q607 48 649 48 Q691 48 714.5 63.5 Q738 79 738 107 Q738 126 729.5 137.5 Q721 149 707.5 155.5 Q694 162 678 164.5 Q662 167 647 167 Q632 167 616 164.5 Q600 162 587.5 155.5 Q575 149 566.5 137 Q558 125 558 107 Z M726 282 Q726 302 711 321 Q696 340 647 340 Q634 340 620.5 337.5 Q607 335 595.5 329 Q584 323 577 311.5 Q570 300 570 282 Q570 248 594.5 234 Q619 220 649 220 Q685 220 705.5 236.5 Q726 253 726 282 Z M15 635 L319 635 L319 576 L313 570 Q248 507 222 431 Q196 355 196 266 L196 245 L118 245 L118 266 Q119 346 141.5 424 Q164 502 212 566 L15 566 L15 635 Z " />
<glyph glyph-name="uni2212" unicode="&#x2212;" horiz-adv-x="624" d="M45 349 L567 349 L567 272 L45 272 L45 349 Z " />
<glyph glyph-name="uni2248" unicode="&#x2248;" horiz-adv-x="598" d="M57 423 Q92 445 125 451.5 Q158 458 188 458 Q219 458 245.5 453 Q272 448 298 441.5 Q324 435 350.5 430 Q377 425 408 425 Q437 425 470.5 434 Q504 443 541 466 L541 380 Q504 357 470.5 351 Q437 345 408 345 Q377 345 350.5 350 Q324 355 298 361.5 Q272 368 245.5 373 Q219 378 188 378 Q158 378 125 368.5 Q92 359 57 338 L57 423 Z M57 266 Q92 288 125 294.5 Q158 301 188 301 Q219 301 245.5 296 Q272 291 298 284.5 Q324 278 350.5 273 Q377 268 408 268 Q437 268 470.5 277 Q504 286 541 308 L541 223 Q504 200 470.5 194 Q437 188 408 188 Q377 188 350.5 193 Q324 198 298 204.5 Q272 211 245.5 216 Q219 221 188 221 Q158 221 125 211.5 Q92 202 57 180 L57 266 Z " />
<glyph glyph-name="uni2260" unicode="&#x2260;" horiz-adv-x="595" d="M533 351 L533 430 L417 430 L487 524 L411 524 L341 430 L20 430 L20 351 L281 351 L197 241 L20 241 L20 161 L136 161 L66 67 L143 67 L213 161 L533 161 L533 241 L273 241 L357 351 L533 351 Z " />
<glyph glyph-name="uni2264" unicode="&#x2264;" horiz-adv-x="470" d="M430 599 L40 415 L40 330 L430 147 L430 238 L131 372 L430 506 L430 599 Z M40 118 L430 118 L430 41 L40 41 L40 118 Z " />
<glyph glyph-name="uni2265" unicode="&#x2265;" horiz-adv-x="470" d="M40 599 L430 415 L430 330 L40 147 L40 238 L339 372 L40 506 L40 599 Z M430 118 L40 118 L40 41 L430 41 L430 118 Z " />
<glyph glyph-name="uniFB00" unicode="&#xfb00;" horiz-adv-x="514" d="M397 490 L397 436 L515 436 L515 369 L397 369 L397 0 L307 0 L307 369 L174 369 L174 0 L84 0 L84 369 L3 369 L3 436 L84 436 L84 498 Q82 544 101 575.5 Q120 607 150 624 Q167 634 185.5 638 Q204 642 223 642 Q266 641 302 622 L283 555 Q275 558 267 561 Q260 563 251.5 565 Q243 567 235 567 Q227 567 216.5 565 Q206 563 196.5 555 Q187 547 180.5 531.5 Q174 516 174 490 L174 436 L307 436 L307 498 Q305 544 324 575.5 Q343 607 373 624 Q390 634 408.5 638 Q427 642 446 642 Q489 641 525 622 L506 555 Q498 558 490 561 Q483 563 474.5 565 Q466 567 458 567 Q450 567 439.5 565 Q429 563 419.5 555 Q410 547 403.5 531.5 Q397 516 397 490 Z " />
<glyph glyph-name="uniFB01" unicode="&#xfb01;" horiz-adv-x="485" d="M174 490 L174 436 L292 436 L292 369 L174 369 L174 0 L84 0 L84 369 L3 369 L3 436 L84 436 L84 498 Q82 544 101 575.5 Q120 607 150 624 Q167 634 185.5 638 Q204 642 223 642 Q264 642 302 622 L283 555 Q275 558 267 561 Q260 563 251.5 565 Q243 567 235 567 Q227 567 216.5 565 Q206 563 196.5 555 Q187 547 180.5 531.5 Q174 516 174 490 Z M343 612 L435 612 L435 519 L343 519 L343 612 Z M434 436 L434 0 L344 0 L344 436 L434 436 Z " />
<glyph glyph-name="uniFB02" unicode="&#xfb02;" horiz-adv-x="531" d="M178 488 L178 447 L299 447 L299 377 L178 377 L178 0 L87 0 L87 377 L3 377 L3 447 L87 447 L87 494 Q86 542 104.5 574 Q123 606 153 623 Q185 642 227 642 Q270 642 309 621 L289 553 Q281 557 273 560 Q266 563 257.5 565 Q249 567 240 567 Q232 567 221.5 564.5 Q211 562 201 554 Q191 546 184.5 530.5 Q178 515 178 488 Z M481 630 L481 0 L390 0 L390 630 L481 630 Z " />
<glyph glyph-name="uniFB03" unicode="&#xfb03;" horiz-adv-x="699" d="M397 436 L648 436 L648 0 L558 0 L558 369 L397 369 L397 0 L307 0 L307 369 L174 369 L174 0 L84 0 L84 369 L3 369 L3 436 L84 436 L84 498 Q82 544 101 575.5 Q120 607 150 624 Q183 642 223 642 Q266 641 302 622 L283 555 Q275 558 267 561 Q260 563 251.5 565 Q243 567 235 567 Q227 567 216.5 565 Q206 563 196.5 555 Q187 547 180.5 531.5 Q174 516 174 490 L174 436 L307 436 L307 498 Q305 544 324 575.5 Q343 607 373 624 Q406 642 446 642 Q489 641 525 622 L506 555 Q498 558 490 561 Q483 563 474.5 565 Q466 567 458 567 Q450 567 439.5 565 Q429 563 419.5 555 Q410 547 403.5 531.5 Q397 516 397 490 L397 436 Z M557 611 L649 611 L649 519 L557 519 L557 611 Z " />
<glyph glyph-name="uniFB04" unicode="&#xfb04;" horiz-adv-x="727" d="M677 630 L677 0 L586 0 L586 630 L677 630 Z M397 490 L397 436 L515 436 L515 369 L397 369 L397 0 L307 0 L307 369 L174 369 L174 0 L84 0 L84 369 L3 369 L3 436 L84 436 L84 498 Q82 544 101 575.5 Q120 607 150 624 Q167 634 185.5 638 Q204 642 223 642 Q266 641 302 622 L283 555 Q275 558 267 561 Q260 563 251.5 565 Q243 567 235 567 Q227 567 216.5 565 Q206 563 196.5 555 Q187 547 180.5 531.5 Q174 516 174 490 L174 436 L307 436 L307 498 Q305 544 324 575.5 Q343 607 373 624 Q390 634 408.5 638 Q427 642 446 642 Q489 641 525 622 L506 555 Q498 558 490 561 Q483 563 474.5 565 Q466 567 458 567 Q450 567 439.5 565 Q429 563 419.5 555 Q410 547 403.5 531.5 Q397 516 397 490 Z " />
<glyph glyph-name="uni2190" unicode="&#x2190;" horiz-adv-x="859" d="M209 374 Q206 372 206.5 369.5 Q207 367 210 367 L829 367 L829 262 L210 262 Q207 262 206.5 259.5 Q206 257 209 256 Q265 232 318.5 207 Q372 182 415 160 Q464 136 509 112 L392 10 Q352 67 295 121 Q238 175 186 219 Q125 269 60 315 Q126 362 188 414 Q224 443 249 465.5 Q274 488 299.5 513 Q325 538 349 565.5 Q373 593 392 620 L510 517 Q466 493 417 469 Q371 446 318.5 421.5 Q266 397 209 374 Z " />
<glyph glyph-name="uni2191" unicode="&#x2191;" horiz-adv-x="670" d="M276 551 Q253 493 227.5 439 Q202 385 181 343 Q156 294 132 250 L30 368 Q84 406 138.5 462.5 Q193 519 237 572 Q288 634 335 700 Q381 635 431 574 Q460 538 482.5 513 Q505 488 530.5 462.5 Q556 437 584 412.5 Q612 388 640 368 L538 251 Q514 296 490 346 Q467 391 442.5 443 Q418 495 394 551 Q393 553 391 553 Q387 553 387 550 L387 -70 L283 -70 L283 550 Q283 553 279 553 Q278 553 276 551 Z " />
<glyph glyph-name="uni2192" unicode="&#x2192;" horiz-adv-x="859" d="M681 374 Q623 397 569 422.5 Q515 448 473 469 Q424 493 380 517 L497 620 Q536 566 592.5 511.5 Q649 457 702 414 Q763 362 829 315 Q764 269 703 219 Q667 190 642.5 167.5 Q618 145 592 119.5 Q566 94 541.5 66 Q517 38 497 10 L381 112 Q426 136 476 160 Q521 183 573 207.5 Q625 232 681 256 Q683 257 682.5 259.5 Q682 262 679 262 L60 262 L60 367 L679 367 Q682 367 682.5 369.5 Q683 372 681 374 Z " />
<glyph glyph-name="uni2193" unicode="&#x2193;" horiz-adv-x="670" d="M276 79 Q278 77 279 77 Q283 77 283 80 L283 700 L387 700 L387 80 Q387 77 391 77 Q393 77 394 79 Q418 135 443 188.5 Q468 242 490 285 Q514 334 538 379 L640 262 Q583 222 529 165.5 Q475 109 431 56 Q381 -5 335 -70 Q288 -4 237 58 Q207 94 184.5 119 Q162 144 137 169.5 Q112 195 84.5 219 Q57 243 30 262 L132 380 Q156 336 181 287 Q204 242 228.5 189.5 Q253 137 276 79 Z " />
</font>
</svg>
