<?xml version="1.0" encoding="UTF-8"?>
<svg xmlns="http://www.w3.org/2000/svg" xmlns:xlink="http://www.w3.org/1999/xlink" version="1.2" >
<font id="Stelvio Grotesk Regular">
<font-face  font-family="Stelvio Grotesk" units-per-em="1000" ascent="630" descent="-370" font-style="normal" font-weight="400" font-stretch="normal" cap-height="630" x-height="434" underline-position="-50" underline-thickness="40" />
<missing-glyph  horiz-adv-x="608" d="" />
<glyph glyph-name="uni0000" d="" />
<glyph glyph-name="uni000D" unicode="&#xd;" horiz-adv-x="250" d="" />
<glyph glyph-name="uni0020" unicode="&#x20;" horiz-adv-x="180" d="" />
<glyph glyph-name="uni0021" unicode="&#x21;" horiz-adv-x="194" d="M81 161 L55 429 L55 630 L136 630 L136 429 L111 161 L81 161 Z M50 113 L50 0 L144 0 L144 113 L50 113 Z " />
<glyph glyph-name="uni0022" unicode="&#x22;" horiz-adv-x="281" d="M231 603 L231 380 L160 380 L160 603 L231 603 Z M50 380 L120 380 L120 603 L50 603 L50 380 Z " />
<glyph glyph-name="uni0023" unicode="&#x23;" horiz-adv-x="584" d="M551 395 L564 461 L460 461 L501 630 L429 630 L388 461 L241 461 L283 630 L211 630 L170 461 L73 461 L62 395 L154 395 L115 235 L33 235 L20 168 L98 168 L57 0 L129 0 L170 168 L316 168 L275 0 L347 0 L388 168 L510 168 L523 235 L405 235 L444 395 L551 395 Z M372 395 L333 235 L186 235 L225 395 L372 395 Z " />
<glyph glyph-name="uni0024" unicode="&#x24;" horiz-adv-x="575" d="M540 167 Q540 86 479 38.5 Q418 -9 311 -12 L311 -101 L251 -101 L251 -10 Q210 -5 171.5 9.5 Q133 24 102 49 Q71 74 49.5 108 Q28 142 22 186 L95 203 Q103 155 143.5 114 Q184 73 251 59 L251 285 L209 293 Q124 309 82 352 Q40 395 40 461 Q40 539 97 586.5 Q154 634 251 641 L251 731 L311 731 L311 641 Q388 635 445.5 596.5 Q503 558 524 472 L451 455 Q428 561 311 574 L311 355 L360 346 Q403 338 436.5 326 Q470 314 493 293.5 Q516 273 528 242.5 Q540 212 540 167 Z M246 368 L251 367 L251 575 Q188 570 153 541 Q118 512 118 466 Q118 440 132.5 422.5 Q147 405 167.5 394 Q188 383 209.5 377 Q231 371 246 368 Z M311 54 Q378 56 420 87.5 Q462 119 462 163 Q462 208 431.5 233 Q401 258 334 270 L311 274 L311 54 Z " />
<glyph glyph-name="uni0025" unicode="&#x25;" horiz-adv-x="762" d="M579 630 L249 -1 L179 -1 L510 630 L579 630 Z M187 302 Q118 302 74 349.5 Q30 397 30 472 Q30 547 74 594.5 Q118 642 187 642 Q258 642 302 594.5 Q346 547 346 472 Q346 397 302 349.5 Q258 302 187 302 Z M100 472 Q100 348 187 348 Q276 348 276 472 Q276 596 187 596 Q100 596 100 472 Z M732 158 Q732 83 688 35.5 Q644 -12 573 -12 Q504 -12 460 35.5 Q416 83 416 158 Q416 233 460 280 Q504 327 573 327 Q644 327 688 280 Q732 233 732 158 Z M486 158 Q486 34 573 34 Q662 34 662 158 Q662 282 573 282 Q486 282 486 158 Z " />
<glyph glyph-name="uni0026" unicode="&#x26;" horiz-adv-x="639" d="M628 70 L639 74 L639 11 L634 9 Q603 -8 568 -8 Q504 -8 439 57 Q396 24 345 6 Q294 -12 243 -12 Q146 -12 88 36.5 Q30 85 30 164 Q30 198 42.5 224 Q55 250 75 271 Q95 292 120.5 308.5 Q146 325 172 339 Q146 368 123 404 Q100 440 100 483 Q100 553 149 597.5 Q198 642 276 642 Q351 642 395.5 602.5 Q440 563 440 497 Q440 466 427.5 440.5 Q415 415 394 394 Q373 373 345.5 355.5 Q318 338 288 323 L444 158 Q464 183 483 216 Q502 249 519 303 L593 313 Q579 257 553 204.5 Q527 152 493 110 Q516 86 537.5 74 Q559 62 584 62 Q602 62 628 70 Z M187 484 Q187 452 201.5 425 Q216 398 239 375 Q307 404 330 430.5 Q353 457 353 497 Q353 510 349.5 523.5 Q346 537 337 548 Q328 559 313 566 Q298 573 274 573 Q248 573 231 565.5 Q214 558 204.5 545 Q195 532 191 516.5 Q187 501 187 484 Z M220 291 Q169 265 143 239 Q117 213 117 165 Q117 117 150.5 87 Q184 57 241 57 Q290 57 328.5 72.5 Q367 88 393 105 L220 291 Z " />
<glyph glyph-name="uni0027" unicode="&#x27;" horiz-adv-x="173" d="M50 630 L50 406 L123 406 L123 630 L50 630 Z " />
<glyph glyph-name="uni0028" unicode="&#x28;" horiz-adv-x="284" d="M254 657 L249 652 Q180 574 148 485 Q116 396 116 285 Q116 175 148 86 Q180 -3 249 -81 L252 -84 L174 -84 Q111 -12 75.5 85 Q40 182 40 285 Q40 389 76 487 Q112 585 176 657 L254 657 Z " />
<glyph glyph-name="uni0029" unicode="&#x29;" horiz-adv-x="284" d="M30 657 L107 657 Q172 585 208 487 Q244 389 244 285 Q244 182 208.5 85 Q173 -12 110 -84 L32 -84 L35 -81 Q103 -3 135.5 86 Q168 175 168 285 Q168 396 135.5 485 Q103 574 35 652 L30 657 Z " />
<glyph glyph-name="uni002A" unicode="&#x2a;" horiz-adv-x="337" d="M322 501 L306 550 L194 511 L194 630 L142 630 L142 510 L32 549 L15 500 L128 463 L59 369 L100 337 L169 433 L238 339 L280 370 L209 465 L322 501 Z " />
<glyph glyph-name="uni002B" unicode="&#x2b;" horiz-adv-x="620" d="M342 571 L342 346 L563 346 L563 283 L342 283 L342 59 L277 59 L277 283 L57 283 L57 346 L277 346 L277 571 L342 571 Z " />
<glyph glyph-name="uni002C" unicode="&#x2c;" horiz-adv-x="178" d="M40 97 L138 97 L138 9 Q138 -45 117.5 -72 Q97 -99 40 -99 L40 -55 Q72 -53 84 -40 Q95 -27 94 0 L40 0 L40 97 Z " />
<glyph glyph-name="uni002D" unicode="&#x2d;" horiz-adv-x="377" d="M317 219 L60 219 L60 280 L317 280 L317 219 Z " />
<glyph glyph-name="uni002E" unicode="&#x2e;" horiz-adv-x="177" d="M40 97 L137 97 L137 0 L40 0 L40 97 Z " />
<glyph glyph-name="uni002F" unicode="&#x2f;" horiz-adv-x="316" d="M57 -84 L312 659 L236 659 L-20 -84 L57 -84 Z " />
<glyph glyph-name="uni0030" unicode="0" horiz-adv-x="627" d="M313 642 Q447 642 519.5 557 Q592 472 592 315 Q592 158 519.5 73 Q447 -12 313 -12 Q180 -12 107.5 73 Q35 158 35 315 Q35 472 107.5 557 Q180 642 313 642 Z M313 57 Q403 57 453.5 126 Q504 195 504 315 Q504 435 453.5 504 Q403 573 313 573 Q224 573 173 504 Q122 435 122 315 Q122 195 173 126 Q224 57 313 57 Z " />
<glyph glyph-name="uni0031" unicode="1" horiz-adv-x="310" d="M181 630 L230 630 L230 0 L149 0 L149 512 Q135 494 113 484.5 Q91 475 70.5 470.5 Q50 466 34.5 465.5 Q19 465 18 465 L10 465 L10 537 L18 537 Q80 537 121.5 557 Q163 577 180 624 L181 630 Z " />
<glyph glyph-name="uni0032" unicode="2" horiz-adv-x="498" d="M155 66 L481 66 L481 0 L27 0 L27 45 L204 199 Q240 231 270.5 259.5 Q301 288 324 317.5 Q347 347 360 378 Q373 409 373 445 Q373 508 339.5 540.5 Q306 573 243 573 Q209 573 181.5 557.5 Q154 542 136.5 516 Q119 490 112.5 456.5 Q106 423 112 387 L37 387 Q28 442 39.5 488.5 Q51 535 79.5 569 Q108 603 151.5 622.5 Q195 642 249 642 Q348 642 404 591.5 Q460 541 460 450 Q460 408 445.5 370.5 Q431 333 407 299 Q383 265 351.5 234 Q320 203 285 174 L155 66 Z " />
<glyph glyph-name="uni0033" unicode="3" horiz-adv-x="526" d="M395 326 Q443 306 471 267 Q499 228 499 177 Q498 124 477 88 Q456 52 422 29.5 Q388 7 344.5 -2.5 Q301 -12 255 -12 Q141 -12 82.5 46 Q24 104 24 216 L108 216 Q108 136 141.5 96.5 Q175 57 256 57 Q284 57 311.5 64 Q339 71 361.5 85.5 Q384 100 398 122.5 Q412 145 412 177 Q413 211 398.5 232.5 Q384 254 361.5 266.5 Q339 279 311 283.5 Q283 288 256 288 Q241 288 227.5 287 Q214 286 202 284 L202 362 Q223 358 254 358 Q282 358 307 363 Q332 368 351 380 Q370 392 381 413 Q392 434 392 466 Q391 496 379.5 516 Q368 536 349 549 Q330 562 305.5 567.5 Q281 573 254 573 Q208 573 181.5 559.5 Q155 546 142 524 Q129 502 125.5 474 Q122 446 122 417 L38 417 Q38 529 90 585.5 Q142 642 255 642 Q304 642 345 633.5 Q386 625 416 604.5 Q446 584 462.5 550.5 Q479 517 479 467 Q480 416 457 380.5 Q434 345 395 326 Z " />
<glyph glyph-name="uni0034" unicode="4" horiz-adv-x="552" d="M444 231 L444 630 L347 630 L16 239 L16 161 L363 161 L363 0 L444 0 L444 161 L545 161 L545 231 L444 231 Z M101 227 L363 538 L363 227 L101 227 Z " />
<glyph glyph-name="uni0035" unicode="5" horiz-adv-x="541" d="M296 428 Q396 428 453.5 370 Q511 312 511 211 Q511 108 449 48 Q387 -12 279 -12 Q195 -12 148.5 15.5 Q102 43 79 81 Q56 119 50 159 Q44 199 41 223 L123 205 Q125 139 169.5 98 Q214 57 281 57 Q343 57 383.5 98.5 Q424 140 424 208 Q424 275 382.5 317 Q341 359 278 359 Q227 359 189.5 336 Q152 313 135 272 L48 288 L87 630 L473 630 L473 564 L157 564 L134 359 Q149 378 172 394 Q193 408 223 418 Q253 428 296 428 Z " />
<glyph glyph-name="uni0036" unicode="6" horiz-adv-x="541" d="M295 415 Q340 415 379 398 Q418 381 447 351.5 Q476 322 492.5 283.5 Q509 245 509 202 Q509 158 492.5 119 Q476 80 446.5 51 Q417 22 377 5 Q337 -12 291 -12 Q237 -12 197 3 Q157 18 128 44 Q76 89 56 155.5 Q36 222 36 319 Q36 392 53.5 451.5 Q71 511 105 553.5 Q139 596 187.5 619 Q236 642 298 642 Q343 642 379.5 629 Q416 616 442.5 594 Q469 572 486 543 Q503 514 510 483 L434 465 Q429 510 392.5 541.5 Q356 573 300 573 Q203 573 159.5 507 Q116 441 114 325 L117 325 Q149 367 192.5 391 Q236 415 295 415 Z M288 57 Q347 57 384.5 97 Q422 137 422 201 Q422 266 383 306 Q344 346 285 346 Q221 346 181 307 Q141 268 141 202 Q141 137 183 97 Q225 57 288 57 Z " />
<glyph glyph-name="uni0037" unicode="7" horiz-adv-x="512" d="M20 630 L492 630 L492 571 L490 569 Q384 463 334 321.5 Q284 180 282 0 L201 0 Q202 80 216 159.5 Q230 239 254.5 312.5 Q279 386 314.5 450.5 Q350 515 394 564 L20 564 L20 630 Z " />
<glyph glyph-name="uni0038" unicode="8" horiz-adv-x="540" d="M393 323 Q445 306 479 266.5 Q513 227 513 172 Q513 121 493 86 Q473 51 439.5 29 Q406 7 362 -2.5 Q318 -12 270 -12 Q222 -12 178 -2.5 Q134 7 100.5 29 Q67 51 47 86 Q27 121 27 172 Q27 199 36.5 222.5 Q46 246 63 265.5 Q80 285 101.5 299 Q123 313 147 321 Q102 339 74.5 376.5 Q47 414 47 468 Q47 513 64 546 Q81 579 111 600.5 Q141 622 181.5 632 Q222 642 270 642 Q318 642 358.5 632 Q399 622 429 600.5 Q459 579 476 546 Q493 513 493 468 Q493 417 467 379 Q441 341 393 324 L393 323 Z M128 463 Q128 412 166.5 381.5 Q205 351 272 351 Q338 351 375 381.5 Q412 412 412 463 Q412 516 375 544.5 Q338 573 269 573 Q201 573 164.5 544.5 Q128 516 128 463 Z M273 57 Q348 57 390 86 Q432 115 432 168 Q432 222 389.5 253 Q347 284 269 284 Q192 284 150 253 Q108 222 108 168 Q108 116 152 86.5 Q196 57 273 57 Z " />
<glyph glyph-name="uni0039" unicode="9" horiz-adv-x="541" d="M246 215 Q201 215 162 232 Q123 249 94 278.5 Q65 308 48.5 346.5 Q32 385 32 428 Q32 472 48.5 511 Q65 550 94.5 579 Q124 608 164 625 Q204 642 250 642 Q304 642 344 627 Q384 612 413 586 Q465 541 485 474.5 Q505 408 505 311 Q505 238 487.5 178.5 Q470 119 436 76.5 Q402 34 353.5 11 Q305 -12 243 -12 Q198 -12 161.5 1 Q125 14 98.5 36 Q72 58 55 87 Q38 116 31 147 L107 165 Q112 120 148.5 88.5 Q185 57 241 57 Q338 57 381.5 123.5 Q425 190 427 305 L424 305 Q392 263 348.5 239 Q305 215 246 215 Z M253 573 Q194 573 156.5 533.5 Q119 494 119 429 Q119 364 158 324 Q197 284 256 284 Q320 284 360 323 Q400 362 400 428 Q400 493 358 533 Q316 573 253 573 Z " />
<glyph glyph-name="uni003A" unicode="&#x3a;" horiz-adv-x="177" d="M40 97 L137 97 L137 0 L40 0 L40 97 Z M40 377 L137 377 L137 280 L40 280 L40 377 Z " />
<glyph glyph-name="uni003B" unicode="&#x3b;" horiz-adv-x="178" d="M40 97 L138 97 L138 9 Q138 -45 117.5 -72 Q97 -99 40 -99 L40 -55 Q72 -53 84 -40 Q95 -27 94 0 L40 0 L40 97 Z M40 377 L138 377 L138 280 L40 280 L40 377 Z " />
<glyph glyph-name="uni003C" unicode="&#x3c;" horiz-adv-x="464" d="M433 138 L113 309 L433 481 L433 560 L43 349 L43 270 L433 59 L433 138 Z " />
<glyph glyph-name="uni003D" unicode="&#x3d;" horiz-adv-x="620" d="M60 277 L560 277 L560 211 L60 211 L60 277 Z M60 453 L60 386 L560 386 L560 453 L60 453 Z " />
<glyph glyph-name="uni003E" unicode="&#x3e;" horiz-adv-x="464" d="M31 138 L351 309 L31 481 L31 560 L421 349 L421 270 L31 59 L31 138 Z " />
<glyph glyph-name="uni003F" unicode="&#x3f;" horiz-adv-x="470" d="M191 97 L288 97 L288 0 L191 0 L191 97 Z M141 537 Q114 508 112 469 Q110 430 115 392 L34 392 Q26 443 37.5 491.5 Q49 540 78 575 Q137 642 238 642 Q334 642 388.5 592.5 Q443 543 443 454 Q443 401 420.5 357.5 Q398 314 352 274 Q325 251 303 219.5 Q281 188 280 152 L199 152 Q198 179 207.5 202.5 Q217 226 231 246.5 Q245 267 262 284.5 Q279 302 294 317 Q317 340 337 373.5 Q357 407 356 453 Q356 515 324 544 Q292 573 232 573 Q205 573 181.5 565 Q158 557 141 537 Z " />
<glyph glyph-name="uni0040" unicode="&#x40;" horiz-adv-x="767" d="M412 555 Q486 555 545 535 Q604 515 645.5 477.5 Q687 440 709.5 387 Q732 334 732 267 Q732 225 722.5 182 Q713 139 691.5 104 Q670 69 636 47 Q602 25 553 25 Q515 25 488 39 Q461 53 449 90 Q421 64 381.5 46.5 Q342 29 307 29 Q246 29 216 68 Q178 119 202 210 Q225 291 280 339 Q335 387 404 387 Q475 387 501 336 L522 379 L586 379 L508 124 Q503 107 511 98 Q517 89 529 84.5 Q541 80 551 80 Q572 80 592.5 91 Q613 102 629 125 Q645 148 655 183.5 Q665 219 665 267 Q665 319 647 362 Q629 405 596 435.5 Q563 466 516 483 Q469 500 412 500 Q343 500 285 476 Q227 452 185.5 410 Q144 368 120.5 309.5 Q97 251 97 182 Q97 124 118 75 Q139 26 176.5 -9.5 Q214 -45 266.5 -65 Q319 -85 381 -85 Q484 -85 592 -34 L614 -83 Q515 -140 380 -140 Q299 -140 234 -117.5 Q169 -95 124 -53 Q79 -11 54.5 49 Q30 109 30 184 Q30 267 57.5 335.5 Q85 404 135.5 453 Q186 502 256.5 528.5 Q327 555 412 555 Z M325 84 Q374 84 411 117.5 Q448 151 465 211 Q484 277 459 308 Q441 332 399 332 Q372 332 350.5 321 Q329 310 312.5 292 Q296 274 284.5 251.5 Q273 229 267 206 Q248 137 274 105 Q291 84 325 84 Z " />
<glyph glyph-name="uni0041" unicode="A" horiz-adv-x="620" d="M522 0 L608 0 L358 630 L262 630 L12 0 L97 0 L166 184 L453 184 L522 0 Z M192 251 L308 560 L312 560 L428 251 L192 251 Z " />
<glyph glyph-name="uni0042" unicode="B" horiz-adv-x="577" d="M316 630 Q425 630 476.5 586 Q528 542 528 470 Q528 361 424 323 Q481 310 511.5 271 Q542 232 542 174 Q542 94 487.5 47 Q433 0 333 0 L60 0 L60 630 L316 630 Z M141 355 L306 355 Q379 355 410 383 Q441 411 441 459 Q441 509 410 535 Q379 561 310 561 L141 561 L141 355 Z M141 69 L319 69 Q389 69 422 96.5 Q455 124 455 178 Q455 229 420.5 258 Q386 287 308 287 L141 287 L141 69 Z " />
<glyph glyph-name="uni0043" unicode="C" horiz-adv-x="660" d="M339 57 Q420 57 473.5 98 Q527 139 549 214 L629 192 Q617 146 591 108 Q565 70 528.5 43.5 Q492 17 446 2.5 Q400 -12 348 -12 Q289 -12 232 9 Q175 30 130.5 71.5 Q86 113 58.5 174 Q31 235 31 315 Q31 395 58 456.5 Q85 518 130 559 Q175 600 232 621 Q289 642 348 642 Q400 642 446 627.5 Q492 613 528.5 586 Q565 559 591 521.5 Q617 484 629 437 L549 416 Q527 491 473.5 532 Q420 573 339 573 Q236 573 177 504 Q118 435 118 315 Q118 195 177 126 Q236 57 339 57 Z " />
<glyph glyph-name="uni0044" unicode="D" horiz-adv-x="625" d="M60 630 L272 630 Q346 630 406 608.5 Q466 587 508 546.5 Q550 506 572.5 447.5 Q595 389 595 315 Q595 241 572.5 182.5 Q550 124 508 83.5 Q466 43 406 21.5 Q346 0 272 0 L60 0 L60 630 Z M270 66 Q386 66 447 130.5 Q508 195 508 315 Q508 435 447 499.5 Q386 564 270 564 L141 564 L141 66 L270 66 Z " />
<glyph glyph-name="uni0045" unicode="E" horiz-adv-x="539" d="M141 66 L141 289 L448 288 L448 354 L141 354 L141 564 L490 564 L490 630 L60 630 L60 0 L501 0 L501 66 L141 66 Z " />
<glyph glyph-name="uni0046" unicode="F" horiz-adv-x="506" d="M141 282 L439 282 L439 348 L141 348 L141 564 L481 564 L481 630 L60 630 L60 0 L141 0 L141 282 Z " />
<glyph glyph-name="uni0047" unicode="G" horiz-adv-x="680" d="M330 241 L330 310 L622 310 L622 0 L557 0 L554 102 Q553 100 539 82 Q525 64 498 43 Q471 22 432 5 Q393 -12 341 -12 Q271 -12 214 13.5 Q157 39 116.5 83 Q76 127 54 186.5 Q32 246 32 314 Q32 382 54 442 Q76 502 116.5 546.5 Q157 591 214 616.5 Q271 642 341 642 Q445 642 521.5 586 Q598 530 625 429 L557 413 Q536 487 480 530 Q424 573 347 573 Q289 573 246 553 Q203 533 174.5 498 Q146 463 132.5 415.5 Q119 368 119 314 Q119 260 133 213 Q147 166 175 131.5 Q203 97 246 77 Q289 57 347 57 Q388 57 424.5 70 Q461 83 488 107 Q515 131 531.5 165 Q548 199 549 241 L330 241 Z " />
<glyph glyph-name="uni0048" unicode="H" horiz-adv-x="642" d="M501 630 L501 355 L141 355 L141 630 L60 630 L60 0 L141 0 L141 289 L501 289 L501 0 L582 0 L582 630 L501 630 Z " />
<glyph glyph-name="uni0049" unicode="I" horiz-adv-x="201" d="M141 0 L60 0 L60 630 L141 630 L141 0 Z " />
<glyph glyph-name="uni004A" unicode="J" horiz-adv-x="499" d="M363 630 L444 630 L444 225 Q444 -12 218 -12 Q121 -12 68 42.5 Q15 97 12 189 L89 208 Q90 136 119.5 96 Q149 56 220 57 Q302 58 332.5 98.5 Q363 139 364 223 L363 630 Z " />
<glyph glyph-name="uni004B" unicode="K" horiz-adv-x="566" d="M266 374 L531 630 L424 630 L141 357 L141 630 L60 630 L60 0 L141 0 L141 253 L210 320 L468 0 L568 0 L266 374 Z " />
<glyph glyph-name="uni004C" unicode="L" horiz-adv-x="509" d="M141 66 L141 630 L60 630 L60 0 L484 0 L484 66 L141 66 Z " />
<glyph glyph-name="uni004D" unicode="M" horiz-adv-x="768" d="M575 630 L386 79 L382 79 L195 630 L60 630 L60 0 L142 0 L141 559 L145 559 L335 0 L433 0 L623 559 L627 559 L626 0 L708 0 L708 630 L575 630 Z " />
<glyph glyph-name="uni004E" unicode="N" horiz-adv-x="627" d="M486 79 L486 630 L567 630 L567 0 L441 0 L145 551 L141 551 L141 0 L60 0 L60 630 L186 630 L482 79 L486 79 Z " />
<glyph glyph-name="uni004F" unicode="O" horiz-adv-x="668" d="M334 57 Q436 57 494 126 Q552 195 552 315 Q552 435 494 504 Q436 573 334 573 Q231 573 173.5 504 Q116 435 116 315 Q116 195 173.5 126 Q231 57 334 57 Z M334 642 Q398 642 453 618.5 Q508 595 549 552 Q590 509 613.5 448.5 Q637 388 637 314 Q637 241 613.5 181 Q590 121 549 78 Q508 35 453 11.5 Q398 -12 334 -12 Q270 -12 215 11.5 Q160 35 119 78 Q78 121 54.5 181 Q31 241 31 314 Q31 388 54.5 448.5 Q78 509 119 552 Q160 595 215 618.5 Q270 642 334 642 Z " />
<glyph glyph-name="uni0050" unicode="P" horiz-adv-x="542" d="M310 630 Q407 630 464.5 576 Q522 522 522 428 Q522 335 464.5 282.5 Q407 230 310 229 L141 229 L141 0 L60 0 L60 630 L310 630 Z M306 294 Q369 294 402 329 Q435 364 435 429 Q435 494 402.5 529 Q370 564 307 564 L141 564 L140 295 L306 294 Z " />
<glyph glyph-name="uni0051" unicode="Q" horiz-adv-x="694" d="M292 -5 Q324 -17 365.5 -37 Q407 -57 449 -76.5 Q491 -96 530 -111 Q569 -126 597 -127 L608 -192 Q586 -191 560 -186 Q535 -181 504.5 -171.5 Q474 -162 437 -144 Q381 -118 337.5 -97 Q294 -76 251 -62 Q224 -53 199 -53 Q161 -53 127.5 -71.5 Q94 -90 66 -123 L31 -64 Q62 -19 99.5 0 Q137 19 180 19 Q193 19 206.5 17 Q220 15 234 12 L237 12 L237 13 Q156 48 106.5 126.5 Q57 205 57 314 Q57 388 80.5 448.5 Q104 509 145 552 Q186 595 241 618.5 Q296 642 360 642 Q424 642 479 618.5 Q534 595 575 552 Q616 509 639.5 448.5 Q663 388 663 314 Q663 241 639.5 181 Q616 121 575 78 Q534 35 479 11.5 Q424 -12 360 -12 Q323 -12 292 -5 Z M142 315 Q142 195 199.5 126 Q257 57 360 57 Q462 57 520 126 Q578 195 578 315 Q578 435 520 504 Q462 573 360 573 Q257 573 199.5 504 Q142 435 142 315 Z " />
<glyph glyph-name="uni0052" unicode="R" horiz-adv-x="583" d="M531 31 Q531 12 545 0 L460 0 Q450 12 450 32 L450 150 Q450 219 415.5 246 Q381 273 299 273 L141 273 L141 0 L60 0 L60 630 L326 630 Q366 630 405.5 620.5 Q445 611 477 590 Q509 569 528.5 534 Q548 499 548 448 Q548 409 535.5 382.5 Q523 356 505 339.5 Q487 323 467.5 314.5 Q448 306 434 303 Q487 289 509 253 Q531 217 531 146 L531 31 Z M333 333 Q395 333 428 362.5 Q461 392 461 448 Q461 509 426 537 Q391 565 333 565 L141 564 L141 333 L333 333 Z " />
<glyph glyph-name="uni0053" unicode="S" horiz-adv-x="575" d="M360 346 Q403 338 436.5 326 Q470 314 493 293.5 Q516 273 528 242.5 Q540 212 540 167 Q540 84 475 36 Q410 -12 297 -12 Q250 -12 204 0 Q158 12 120 36.5 Q82 61 56 98 Q30 135 22 186 L95 203 Q100 175 116 148 Q132 121 159 100 Q186 79 222 66.5 Q258 54 303 54 Q373 54 417.5 86 Q462 118 462 163 Q462 208 431.5 233 Q401 258 334 270 L209 293 Q124 309 82 352 Q40 395 40 461 Q40 546 105.5 594 Q171 642 280 642 Q324 642 363 633 Q402 624 434 604 Q466 584 489.5 551.5 Q513 519 524 472 L451 455 Q437 518 393.5 547 Q350 576 274 576 Q201 576 159.5 546 Q118 516 118 466 Q118 440 132.5 422.5 Q147 405 167.5 394 Q188 383 209.5 377 Q231 371 246 368 L360 346 Z " />
<glyph glyph-name="uni0054" unicode="T" horiz-adv-x="573" d="M20 630 L20 564 L246 564 L246 0 L326 0 L327 564 L553 564 L553 630 L20 630 Z " />
<glyph glyph-name="uni0055" unicode="U" horiz-adv-x="602" d="M549 630 L549 233 Q549 166 529.5 119.5 Q510 73 476.5 44 Q443 15 397.5 1.5 Q352 -12 300 -12 Q249 -12 204 1.5 Q159 15 125.5 44 Q92 73 72.5 119.5 Q53 166 53 233 L53 630 L134 630 L133 247 Q133 148 176 102.5 Q219 57 300 57 Q381 57 424.5 102.5 Q468 148 468 246 L468 630 L549 630 Z " />
<glyph glyph-name="uni0056" unicode="V" horiz-adv-x="639" d="M513 630 L306 79 L302 79 L94 629 L10 629 L255 0 L352 0 L597 630 L513 630 Z " />
<glyph glyph-name="uni0057" unicode="W" horiz-adv-x="807" d="M274 0 L401 559 L405 559 L533 0 L647 0 L795 630 L713 630 L587 79 L583 79 L457 630 L350 630 L224 79 L220 79 L94 630 L12 630 L160 0 L274 0 Z " />
<glyph glyph-name="uni0058" unicode="X" horiz-adv-x="595" d="M12 0 L107 0 L296 265 L485 0 L583 0 L346 328 L569 630 L474 630 L299 386 L120 630 L26 630 L251 328 L12 0 Z " />
<glyph glyph-name="uni0059" unicode="Y" horiz-adv-x="566" d="M243 0 L323 0 L323 249 L554 630 L463 630 L283 317 L104 630 L12 630 L242 249 L243 0 Z " />
<glyph glyph-name="uni005A" unicode="Z" horiz-adv-x="565" d="M119 66 L535 66 L535 0 L30 0 L30 76 L429 564 L33 564 L33 630 L526 630 L526 554 L119 66 Z " />
<glyph glyph-name="uni005B" unicode="&#x5b;" horiz-adv-x="280" d="M140 -12 L230 -12 L230 -84 L65 -84 L65 659 L230 659 L230 587 L140 587 L140 -12 Z " />
<glyph glyph-name="uni005C" unicode="&#x5c;" horiz-adv-x="316" d="M259 -84 L4 659 L80 659 L336 -84 L259 -84 Z " />
<glyph glyph-name="uni005D" unicode="&#x5d;" horiz-adv-x="280" d="M140 -12 L50 -12 L50 -84 L215 -84 L215 659 L50 659 L50 587 L140 587 L140 -12 Z " />
<glyph glyph-name="uni005E" unicode="&#x5e;" horiz-adv-x="356" d="M92 428 L177 564 L263 428 L346 428 L213 630 L144 630 L10 428 L92 428 Z " />
<glyph glyph-name="uni005F" unicode="&#x5f;" horiz-adv-x="376" d="M20 -49 L356 -49 L356 -111 L20 -111 L20 -49 Z " />
<glyph glyph-name="uni0060" unicode="&#x60;" horiz-adv-x="512" d="M332 508 L278 634 L180 634 L277 508 L332 508 Z " />
<glyph glyph-name="uni0061" unicode="a" horiz-adv-x="453" d="M438 47 L448 50 L448 -3 Q442 -6 435 -8 Q428 -9 420 -10.5 Q412 -12 403 -12 Q381 -12 366.5 -5 Q352 2 343 11.5 Q334 21 329 32 Q324 43 322 51 Q315 43 303 32 Q291 21 274 11.5 Q257 2 235 -5 Q213 -12 187 -12 Q149 -12 121 -1 Q93 10 74.5 28 Q56 46 47 68.5 Q38 91 38 114 Q38 156 54 181 Q70 206 95.5 221 Q121 236 152 243.5 Q183 251 213 256 Q256 264 287.5 274 Q319 284 319 315 Q319 347 297 365 Q275 383 235 383 Q191 383 167.5 359.5 Q144 336 136 295 L57 310 Q59 322 66 344.5 Q73 367 92.5 390 Q112 413 146.5 430 Q181 447 236 447 Q305 447 351.5 415 Q398 383 398 308 L398 73 Q398 44 421 44 Q428 44 438 47 Z M320 161 L320 230 Q302 222 272 214 Q242 206 223 201 Q207 197 188.5 192 Q170 187 154.5 178 Q139 169 129 155.5 Q119 142 119 121 Q119 84 143 69 Q167 54 200 54 Q249 54 284.5 81.5 Q320 109 320 161 Z " />
<glyph glyph-name="uni0062" unicode="b" horiz-adv-x="497" d="M282 448 Q321 448 355 433 Q389 418 414 388.5 Q439 359 453.5 316.5 Q468 274 468 219 Q468 168 455 126 Q442 84 418 53 Q394 22 359.5 5 Q325 -12 281 -12 Q231 -12 197 8 Q163 28 139 66 L138 66 L121 0 L59 0 L59 630 L138 630 L138 368 L139 368 Q160 406 196 427 Q232 448 282 448 Z M260 52 Q319 52 352.5 96.5 Q386 141 386 218 Q386 295 352.5 339 Q319 383 260 383 Q202 383 168.5 339 Q135 295 135 218 Q135 141 168.5 96.5 Q202 52 260 52 Z " />
<glyph glyph-name="uni0063" unicode="c" horiz-adv-x="480" d="M246 51 Q295 51 327.5 78 Q360 105 374 153 L450 132 Q433 65 378.5 26.5 Q324 -12 252 -12 Q206 -12 165.5 4.5 Q125 21 94.5 51 Q64 81 46.5 123 Q29 165 29 217 Q29 266 45 308 Q61 350 90.5 380.5 Q120 411 161.5 429 Q203 447 252 447 Q287 447 319 437 Q351 427 377.5 408.5 Q404 390 423.5 363 Q443 336 451 302 L374 281 Q361 330 328 357 Q295 384 246 384 Q183 384 147 339.5 Q111 295 111 218 Q111 140 147 95.5 Q183 51 246 51 Z " />
<glyph glyph-name="uni0064" unicode="d" horiz-adv-x="497" d="M215 448 Q265 448 301 427 Q337 406 358 368 L359 368 L359 630 L438 630 L438 0 L359 0 L359 66 L358 66 Q334 28 300 8 Q266 -12 216 -12 Q173 -12 138 5 Q103 22 79 53 Q55 84 42 126 Q29 168 29 219 Q29 274 43.5 316.5 Q58 359 83 388.5 Q108 418 142 433 Q176 448 215 448 Z M237 52 Q296 52 329 96.5 Q362 141 362 218 Q362 295 329 339 Q296 383 237 383 Q178 383 144.5 339 Q111 295 111 218 Q111 141 144.5 96.5 Q178 52 237 52 Z " />
<glyph glyph-name="uni0065" unicode="e" horiz-adv-x="480" d="M379 138 L451 122 Q429 53 374 20.5 Q319 -12 250 -12 Q139 -12 75 70 Q49 102 38.5 145.5 Q28 189 29 228 Q31 327 90.5 387 Q150 447 250 447 Q295 447 332.5 430.5 Q370 414 396 385 Q422 356 436.5 317.5 Q451 279 451 235 L451 193 L111 193 Q118 129 153.5 90 Q189 51 251 51 Q296 51 329.5 73 Q363 95 379 138 Z M113 247 L368 247 Q364 302 333 343 Q302 384 242 384 Q179 384 149.5 344 Q120 304 113 247 Z " />
<glyph glyph-name="uni0066" unicode="f" horiz-adv-x="294" d="M167 492 L167 436 L285 436 L285 380 L167 380 L167 0 L88 0 L88 380 L7 380 L7 436 L88 436 L90 504 Q89 549 107.5 580 Q126 611 155 627 Q184 642 220 642 Q255 642 294 625 L277 564 Q269 568 261 571 Q253 573 244.5 575 Q236 577 228 577 Q219 577 208.5 574.5 Q198 572 189 563 Q180 554 173.5 537.5 Q167 521 167 492 Z " />
<glyph glyph-name="uni0067" unicode="g" horiz-adv-x="476" d="M318 85 Q385 85 422.5 56.5 Q460 28 460 -27 Q460 -100 396 -142 Q332 -184 218 -184 Q121 -184 65.5 -151.5 Q10 -119 10 -62 Q10 -39 18 -22 Q26 -5 37 6.5 Q48 18 58.5 24 Q69 30 73 31 Q52 42 39.5 63.5 Q27 85 27 113 Q27 145 45 169.5 Q63 194 89 200 Q70 219 59 243.5 Q48 268 48 297 Q48 331 62.5 358.5 Q77 386 102 405.5 Q127 425 161 436 Q195 447 234 447 Q311 447 363 409 Q372 423 396 441.5 Q420 460 462 460 L476 388 Q446 388 426 384.5 Q406 381 397 377 Q405 363 412.5 342 Q420 321 420 297 Q420 264 405.5 236.5 Q391 209 366 189.5 Q341 170 307 159 Q273 148 234 148 Q176 148 128 172 Q113 168 102.5 156.5 Q92 145 92 131 Q92 113 106 99 Q120 85 141 85 L318 85 Z M234 393 Q187 393 160 368 Q133 343 133 296 Q133 250 160 225.5 Q187 201 234 201 Q281 201 308 225.5 Q335 250 335 296 Q335 343 308 368 Q281 393 234 393 Z M220 -134 Q289 -134 334 -113.5 Q379 -93 379 -44 Q379 -13 357.5 -0.5 Q336 12 301 12 L171 12 Q139 12 116 -2 Q93 -16 93 -53 Q93 -95 128 -114.5 Q163 -134 220 -134 Z " />
<glyph glyph-name="uni0068" unicode="h" horiz-adv-x="493" d="M272 447 Q362 447 400 397 Q438 347 438 270 L438 0 L360 0 L360 266 Q360 320 333.5 351.5 Q307 383 255 383 Q207 383 170.5 348.5 Q134 314 134 256 L134 0 L55 0 L55 630 L134 630 L134 354 Q150 394 189 420.5 Q228 447 272 447 Z " />
<glyph glyph-name="uni0069" unicode="i" horiz-adv-x="196" d="M137 436 L58 436 L58 0 L137 0 L137 436 Z M55 596 L141 596 L141 514 L55 514 L55 596 Z " />
<glyph glyph-name="uni006A" unicode="j" horiz-adv-x="192" d="M134 -59 Q134 -119 99.5 -151.5 Q65 -184 8 -184 L7 -184 Q-10 -184 -28 -179.5 Q-46 -175 -54 -173 L-60 -171 L-54 -108 L-45 -111 Q-36 -115 -23 -118 Q-10 -121 3 -121 Q28 -121 42 -107 Q55 -92 55 -64 L55 436 L134 436 L134 -59 Z M51 596 L137 596 L137 514 L51 514 L51 596 Z " />
<glyph glyph-name="uni006B" unicode="k" horiz-adv-x="458" d="M439 436 L340 436 L134 242 L134 630 L55 630 L55 0 L134 0 L134 149 L190 201 L352 0 L448 0 L244 252 L439 436 Z " />
<glyph glyph-name="uni006C" unicode="l" horiz-adv-x="189" d="M134 630 L55 630 L55 0 L134 0 L134 630 Z " />
<glyph glyph-name="uni006D" unicode="m" horiz-adv-x="764" d="M709 273 L709 0 L630 0 L630 267 Q630 320 606.5 351.5 Q583 383 534 383 Q489 383 455.5 349 Q422 315 422 257 L422 0 L343 0 L343 267 Q343 320 319 351.5 Q295 383 246 383 Q201 383 167.5 349 Q134 315 134 257 L134 0 L55 0 L55 436 L119 436 L134 360 Q149 399 187 423 Q225 447 271 447 Q331 447 359 421 Q387 395 398 353 Q410 386 432 405 Q454 424 478 433.5 Q502 443 523 445.5 Q544 448 553 448 Q636 448 672.5 399.5 Q709 351 709 273 Z " />
<glyph glyph-name="uni006E" unicode="n" horiz-adv-x="490" d="M270 447 Q353 447 394 399 Q435 351 435 273 L435 0 L356 0 L356 267 Q356 321 330.5 352 Q305 383 254 383 Q206 383 170 349 Q134 315 134 257 L134 0 L55 0 L55 436 L119 436 L134 357 Q150 396 188.5 421.5 Q227 447 270 447 Z " />
<glyph glyph-name="uni006F" unicode="o" horiz-adv-x="496" d="M248 447 Q297 447 337.5 429.5 Q378 412 406.5 381 Q435 350 451 308 Q467 266 467 217 Q467 168 451 126.5 Q435 85 406.5 54 Q378 23 337.5 5.5 Q297 -12 248 -12 Q199 -12 158.5 5.5 Q118 23 89.5 54 Q61 85 45 126.5 Q29 168 29 217 Q29 266 45 308 Q61 350 89.5 381 Q118 412 158.5 429.5 Q199 447 248 447 Z M248 52 Q312 52 348.5 96 Q385 140 385 218 Q385 295 348.5 339.5 Q312 384 248 384 Q184 384 147.5 339.5 Q111 295 111 218 Q111 140 147.5 96 Q184 52 248 52 Z " />
<glyph glyph-name="uni0070" unicode="p" horiz-adv-x="498" d="M283 -12 Q233 -12 197 9 Q161 30 140 68 L138 68 L138 -172 L59 -172 L59 436 L138 436 L138 370 L140 370 Q164 408 198 427.5 Q232 447 281 447 Q325 447 360 430 Q395 413 419 382.5 Q443 352 456 309.5 Q469 267 469 216 Q469 161 454.5 118.5 Q440 76 414.5 47 Q389 18 355.5 3 Q322 -12 283 -12 Z M261 383 Q202 383 168.5 339 Q135 295 135 218 Q135 141 168.5 96.5 Q202 52 261 52 Q320 52 353.5 96.5 Q387 141 387 218 Q387 295 353.5 339 Q320 383 261 383 Z " />
<glyph glyph-name="uni0071" unicode="q" horiz-adv-x="498" d="M215 -12 Q176 -12 142.5 3 Q109 18 83.5 47 Q58 76 43.5 118.5 Q29 161 29 216 Q29 267 42 309.5 Q55 352 79 382.5 Q103 413 138 430 Q173 447 217 447 Q266 447 300 427.5 Q334 408 358 370 L360 370 L360 436 L439 436 L439 -172 L360 -172 L360 68 L358 68 Q337 30 301 9 Q265 -12 215 -12 Z M237 383 Q178 383 144.5 339 Q111 295 111 218 Q111 141 144.5 96.5 Q178 52 237 52 Q296 52 329.5 96.5 Q363 141 363 218 Q363 295 329.5 339 Q296 383 237 383 Z " />
<glyph glyph-name="uni0072" unicode="r" horiz-adv-x="300" d="M295 437 L295 366 Q279 369 263 369 Q205 369 168.5 331 Q132 293 134 220 L134 0 L55 0 L55 436 L117 436 L131 368 L133 368 Q176 440 263 440 Q271 440 279.5 439.5 Q288 439 295 437 Z " />
<glyph glyph-name="uni0073" unicode="s" horiz-adv-x="425" d="M267 247 Q327 235 361.5 209 Q396 183 396 118 Q396 84 381.5 59 Q367 34 343 18.5 Q319 3 288 -4.5 Q257 -12 223 -12 Q187 -12 154.5 -3 Q122 6 96 24 Q70 42 52.5 68.5 Q35 95 29 129 L95 143 Q104 97 143 72 Q182 47 227 47 Q261 47 292.5 64 Q324 81 325 115 Q325 146 304.5 159 Q284 172 247 179 L162 195 Q109 205 75 234 Q41 263 41 317 Q41 353 56.5 377.5 Q72 402 96 417.5 Q120 433 150.5 440 Q181 447 212 447 Q356 447 385 326 L319 311 Q302 388 208 388 Q192 388 175 384.5 Q158 381 144 373 Q130 365 121 352 Q112 339 112 320 Q112 278 190 261 L267 247 Z " />
<glyph glyph-name="uni0074" unicode="t" horiz-adv-x="322" d="M185 379 L185 108 Q185 80 198 65 Q212 51 237 51 Q250 51 263 54 Q276 57 285 61 L294 64 L300 1 L294 -1 Q286 -3 268 -7.5 Q250 -12 233 -12 L232 -12 Q172 -12 139 22 Q106 56 106 113 L106 379 L6 379 L6 435 L16 435 Q51 435 71 442 Q91 449 100.5 464 Q110 479 112 503 Q114 527 114 561 L114 571 L184 571 Q186 536 184.5 510.5 Q183 485 180 469 Q177 449 172 435 L307 435 L307 379 L185 379 Z " />
<glyph glyph-name="uni0075" unicode="u" horiz-adv-x="489" d="M219 -12 Q136 -12 95.5 36.5 Q55 85 55 162 L55 436 L134 436 L134 168 Q134 115 159.5 83.5 Q185 52 236 52 Q284 52 319.5 86 Q355 120 355 178 L355 436 L434 436 L434 0 L370 0 L355 78 Q340 39 301 13.5 Q262 -12 219 -12 Z " />
<glyph glyph-name="uni0076" unicode="v" horiz-adv-x="453" d="M7 436 L89 436 L225 77 L229 77 L363 436 L446 436 L266 0 L187 0 L7 436 Z " />
<glyph glyph-name="uni0077" unicode="w" horiz-adv-x="618" d="M531 436 L444 77 L440 77 L354 436 L264 436 L177 77 L173 77 L87 436 L7 436 L132 0 L219 0 L307 359 L311 359 L399 0 L486 0 L611 436 L531 436 Z " />
<glyph glyph-name="uni0078" unicode="x" horiz-adv-x="465" d="M442 436 L359 436 L234 279 L113 436 L24 436 L193 223 L7 0 L89 0 L231 175 L370 0 L458 0 L274 228 L442 436 Z " />
<glyph glyph-name="uni0079" unicode="y" horiz-adv-x="449" d="M442 436 L259 -33 Q244 -71 230 -101 Q216 -131 196 -151 Q176 -171 150.5 -178 Q125 -185 97 -185 Q84 -185 73 -183.5 Q62 -182 54 -180 Q45 -178 37 -176 L37 -110 Q43 -113 51 -116 Q58 -118 68 -119.5 Q78 -121 91 -121 Q112 -121 124 -116 Q136 -111 144.5 -100.5 Q153 -90 159.5 -73 Q166 -56 175 -32 L182 -14 L7 436 L89 436 L222 94 L226 94 L359 436 L442 436 Z " />
<glyph glyph-name="uni007A" unicode="z" horiz-adv-x="409" d="M122 63 L380 63 L380 0 L29 0 L29 54 L280 372 L32 372 L32 435 L373 435 L373 382 L122 63 Z " />
<glyph glyph-name="uni007B" unicode="&#x7b;" horiz-adv-x="293" d="M172 389 Q172 354 159.5 328.5 Q147 303 114 289 Q146 279 157.5 252.5 Q169 226 172 188 L172 15 Q172 -2 178 -7.5 Q184 -13 195 -13 L243 -13 L243 -84 L196 -84 Q97 -84 97 23 L97 193 Q97 234 86 245 Q75 256 51 256 L25 256 L25 321 L51 321 Q75 321 86 332.5 Q97 344 97 385 L97 554 Q97 661 196 661 L243 661 L243 589 L215 589 Q201 589 186.5 582 Q172 575 172 561 L172 389 Z " />
<glyph glyph-name="uni007C" unicode="&#x7c;" horiz-adv-x="203" d="M65 660 L65 -83 L138 -83 L138 660 L65 660 Z " />
<glyph glyph-name="uni007D" unicode="&#x7d;" horiz-adv-x="293" d="M121 389 L121 561 Q121 575 106.5 582 Q92 589 78 589 L50 589 L50 661 L97 661 Q196 661 196 554 L196 385 Q196 344 207 332.5 Q218 321 243 321 L268 321 L268 256 L243 256 Q218 256 207 245 Q196 234 196 193 L196 23 Q196 -84 97 -84 L50 -84 L50 -13 L98 -13 Q109 -13 115 -7.5 Q121 -2 121 15 L121 188 Q125 226 136 252.5 Q147 279 179 289 Q146 303 133.5 328.5 Q121 354 121 389 Z " />
<glyph glyph-name="uni007E" unicode="&#x7e;" horiz-adv-x="399" d="M50 203 Q50 259 70.5 292.5 Q91 326 135 326 Q155 326 171.5 317 Q188 308 202.5 296.5 Q217 285 230.5 276 Q244 267 259 267 Q280 267 287.5 281.5 Q295 296 297 323 L349 323 Q349 267 328 233.5 Q307 200 264 200 Q243 200 226.5 209 Q210 218 195.5 229.5 Q181 241 167.5 250 Q154 259 139 259 Q118 259 110.5 244.5 Q103 230 101 203 L50 203 Z " />
<glyph glyph-name="uni00A1" unicode="&#xa1;" horiz-adv-x="194" d="M112 357 L139 89 L139 -112 L58 -112 L58 89 L83 357 L112 357 Z M144 405 L144 518 L50 518 L50 405 L144 405 Z " />
<glyph glyph-name="uni00A2" unicode="&#xa2;" horiz-adv-x="480" d="M260 51 Q303 56 332 82 Q361 108 374 153 L450 132 Q433 66 381 28 Q329 -10 260 -12 L260 -102 L220 -102 L220 -10 Q180 -5 145 13.5 Q110 32 84 61.5 Q58 91 43.5 130.5 Q29 170 29 217 Q29 262 42.5 301 Q56 340 81 370 Q106 400 141.5 419.5 Q177 439 220 445 L220 536 L260 536 L260 447 Q327 445 381 406.5 Q435 368 451 302 L374 281 Q362 326 333 352.5 Q304 379 260 383 L260 51 Z M111 218 Q111 149 140 105.5 Q169 62 220 53 L220 382 Q169 373 140 330 Q111 287 111 218 Z " />
<glyph glyph-name="uni00A3" unicode="&#xa3;" horiz-adv-x="504" d="M469 111 L488 32 Q459 8 433 -1.5 Q407 -11 383 -11 Q357 -11 332.5 -3.5 Q308 4 283.5 13.5 Q259 23 234.5 30.5 Q210 38 184 38 Q161 38 136 29.5 Q111 21 84 0 L47 51 Q112 96 135 154 Q158 212 115 291 L13 291 L13 340 L92 340 L90 346 Q81 366 74 392 Q67 418 67 452 Q67 539 119.5 590.5 Q172 642 261 642 Q350 642 403 593.5 Q456 545 463 457 L463 451 L395 433 L395 442 Q388 575 264 575 Q207 575 180.5 543.5 Q154 512 154 451 Q154 422 160 396.5 Q166 371 177 343 L178 340 L333 340 L333 291 L197 291 Q220 239 209 185 Q198 131 170 94 Q185 98 204 98 Q231 98 256 92 Q281 86 297 80 Q331 63 365 63 Q421 63 469 111 Z " />
<glyph glyph-name="uni00A5" unicode="&#xa5;" horiz-adv-x="592" d="M582 632 L490 632 L296 340 L106 632 L10 632 L208 338 L78 338 L78 270 L254 270 L255 270 L255 199 L78 199 L78 130 L255 130 L255 0 L337 0 L337 130 L515 130 L515 199 L337 199 L337 270 L515 270 L515 338 L383 338 L582 632 Z " />
<glyph glyph-name="uni00A7" unicode="&#xa7;" horiz-adv-x="447" d="M368 143 Q391 128 402.5 103.5 Q414 79 414 41 Q414 -23 364.5 -59.5 Q315 -96 228 -96 Q191 -96 155.5 -87 Q120 -78 92 -59 Q64 -40 45 -11 Q26 18 20 58 L79 70 Q82 49 93 28 Q104 7 122.5 -9 Q141 -25 167.5 -35 Q194 -45 228 -45 Q282 -45 318.5 -21.5 Q355 2 355 37 Q355 71 331.5 91 Q308 111 257 121 L162 139 Q32 163 32 265 Q32 302 49 330.5 Q66 359 97 376 Q45 410 45 473 Q45 537 92.5 574 Q140 611 223 611 Q312 611 355 581.5 Q398 552 415 480 L356 466 Q345 514 314 536 Q283 558 224 558 Q168 558 136 536.5 Q104 515 104 477 Q104 457 115 443.5 Q126 430 142 421 Q158 412 174.5 407 Q191 402 202 400 L289 384 Q354 372 390.5 344.5 Q427 317 427 249 Q427 180 368 143 Z M189 192 L276 175 Q288 173 295 171 Q327 181 347.5 200.5 Q368 220 368 246 Q368 280 344.5 300 Q321 320 270 330 L176 347 Q136 341 113.5 320.5 Q91 300 91 268 Q91 249 102 235 Q113 221 129 212 Q145 203 161.5 198.5 Q178 194 189 192 Z " />
<glyph glyph-name="uni00A8" unicode="&#xa8;" horiz-adv-x="515" d="M129 668 L226 668 L226 575 L129 575 L129 668 Z M289 668 L386 668 L386 575 L289 575 L289 668 Z " />
<glyph glyph-name="uni00A9" unicode="&#xa9;" horiz-adv-x="720" d="M359 -12 Q293 -12 234 12.5 Q175 37 130.5 80.5 Q86 124 60.5 183.5 Q35 243 35 314 Q35 385 60.5 445.5 Q86 506 130.5 549.5 Q175 593 234 617.5 Q293 642 359 642 Q427 642 486 617.5 Q545 593 589.5 549.5 Q634 506 659.5 445.5 Q685 385 685 314 Q685 243 659.5 183.5 Q634 124 589.5 80.5 Q545 37 486 12.5 Q427 -12 359 -12 Z M359 601 Q301 601 249.5 579.5 Q198 558 160.5 520 Q123 482 101 429.5 Q79 377 79 314 Q79 252 101 199.5 Q123 147 160.5 109 Q198 71 249.5 49.5 Q301 28 359 28 Q418 28 469 49.5 Q520 71 557.5 109 Q595 147 617 199.5 Q639 252 639 314 Q639 377 617 429.5 Q595 482 557.5 520 Q520 558 469 579.5 Q418 601 359 601 Z M478 257 L536 241 Q522 184 477 150 Q432 116 370 116 Q325 116 290.5 133 Q256 150 232.5 177.5 Q209 205 197 240 Q185 275 184 312 Q184 349 195 384.5 Q206 420 229 448.5 Q252 477 287 495 Q322 513 370 514 Q432 514 477 479.5 Q522 445 536 388 L478 373 Q468 413 439 437 Q410 461 368 461 Q340 461 318.5 448.5 Q297 436 281.5 415.5 Q266 395 258 368.5 Q250 342 249 315 Q248 288 255 262.5 Q262 237 276.5 217 Q291 197 314.5 185 Q338 173 370 173 Q412 173 439.5 195 Q467 217 478 257 Z " />
<glyph glyph-name="uni00AA" unicode="&#xaa;" horiz-adv-x="356" d="M332 343 L347 348 L347 297 Q329 288 309 288 Q279 288 265 302.5 Q251 317 246 330 Q232 316 207.5 302 Q183 288 148 288 Q118 288 96 297 Q74 306 59.5 320 Q45 334 38 352 Q31 370 31 388 Q31 421 45 441.5 Q59 462 80 474 Q101 486 126 491.5 Q151 497 174 501 Q200 506 220.5 511.5 Q241 517 241 530 Q241 549 235 560 Q229 571 220 576.5 Q211 582 201 583.5 Q191 585 183 585 Q160 585 141 571 Q122 557 116 528 L46 541 Q47 550 52.5 567 Q58 584 73 600.5 Q88 617 114.5 629.5 Q141 642 184 642 Q239 642 274.5 617.5 Q310 593 310 533 L310 357 Q310 350 311 347.5 Q312 345 313 344 Q314 343 315 343 Q318 342 322 342 Q328 342 332 343 Z M241 419 L241 459 Q227 452 205 448 Q183 444 166 442 Q152 440 148 439 Q136 436 120.5 427.5 Q105 419 105 390 Q105 371 116 358 Q126 349 139 347.5 Q152 346 157 346 L158 346 Q194 346 217.5 366.5 Q241 387 241 419 Z " />
<glyph glyph-name="uni00AB" unicode="&#xab;" horiz-adv-x="391" d="M202 249 L341 374 L341 287 L260 218 L341 142 L341 64 L202 189 L202 249 Z M50 249 L50 189 L188 64 L188 142 L108 218 L188 287 L188 374 L50 249 Z " />
<glyph glyph-name="uni00AE" unicode="&#xae;" horiz-adv-x="398" d="M199 292 Q163 292 131.5 305 Q100 318 76.5 341 Q53 364 39 396 Q25 428 25 466 Q25 504 39 536.5 Q53 569 76.5 592.5 Q100 616 131.5 629 Q163 642 199 642 Q235 642 266.5 629 Q298 616 322 592.5 Q346 569 359.5 536.5 Q373 504 373 466 Q373 428 359.5 396 Q346 364 322 341 Q298 318 266.5 305 Q235 292 199 292 Z M199 612 Q139 612 98 571 Q57 530 57 466 Q57 403 98 362.5 Q139 322 199 322 Q229 322 254.5 332.5 Q280 343 299.5 362.5 Q319 382 330 408.5 Q341 435 341 466 Q341 498 330 524.5 Q319 551 299.5 570.5 Q280 590 254.5 601 Q229 612 199 612 Z M274 384 Q274 379 277 373 Q278 370 279 368 L243 368 Q241 369 240 372 Q236 377 236 384 L236 415 Q236 430 229.5 437 Q223 444 199 444 L160 444 L160 368 L122 368 L122 565 L207 565 Q225 565 243.5 558.5 Q262 552 271 535 Q278 524 278 506 Q278 486 267.5 477.5 Q257 469 249 464 Q258 457 266 448 Q274 439 274 419 L274 384 Z M238 493 Q241 498 241 505 Q241 512 238 518 Q232 527 225.5 529.5 Q219 532 208 532 L160 532 L160 479 L209 479 Q214 479 222 481 Q226 481 232 485 Q237 490 238 493 Z " />
<glyph glyph-name="uni00AF" unicode="&#xaf;" horiz-adv-x="512" d="M125 575 L387 575 L387 513 L125 513 L125 575 Z " />
<glyph glyph-name="uni00B0" unicode="&#xb0;" horiz-adv-x="334" d="M163 647 Q193 647 218.5 636.5 Q244 626 263 607.5 Q282 589 293 564 Q304 539 304 510 Q304 481 293 456 Q282 431 263 412 Q244 393 218.5 382.5 Q193 372 163 372 Q134 372 108.5 382.5 Q83 393 64 412 Q45 431 34 456 Q23 481 23 510 Q23 539 34 564 Q45 589 64 607.5 Q83 626 108.5 636.5 Q134 647 163 647 Z M239 510 Q239 545 217.5 567.5 Q196 590 163 590 Q131 590 109.5 567.5 Q88 545 88 510 Q88 475 109.5 452.5 Q131 430 163 430 Q196 430 217.5 452.5 Q239 475 239 510 Z " />
<glyph glyph-name="uni00B1" unicode="&#xb1;" horiz-adv-x="621" d="M50 108 L571 108 L571 46 L50 46 L50 108 Z M571 415 L343 415 L343 617 L278 617 L278 415 L50 415 L50 351 L278 351 L278 156 L343 156 L343 351 L571 351 L571 415 Z " />
<glyph glyph-name="uni00B2" unicode="&#xb2;" horiz-adv-x="347" d="M125 291 L317 291 L317 240 L30 240 L30 274 L143 372 Q185 410 214 442.5 Q243 475 243 517 Q243 554 223 573 Q203 592 167 592 Q134 592 111 566 Q97 550 91 527.5 Q85 505 90 482 L91 477 L37 477 L36 481 Q25 549 64 596 Q102 642 170 642 L171 642 Q229 642 266 611 Q303 580 303 520 Q303 467 269.5 425.5 Q236 384 193 347 L125 291 Z " />
<glyph glyph-name="uni00B3" unicode="&#xb3;" horiz-adv-x="347" d="M269 442 Q286 433 306.5 410.5 Q327 388 327 350 Q327 316 314 293 Q301 270 279 256 Q257 242 229 236 Q201 230 172 230 Q25 230 25 374 L86 374 Q86 324 106.5 302 Q127 280 172 280 Q207 280 236.5 295 Q266 310 266 350 Q267 373 254.5 388 Q242 403 219 409 Q203 413 172 413 Q163 413 155.5 413 Q148 413 140 411 L140 469 Q155 466 172 466 Q205 466 229.5 477.5 Q254 489 254 528 Q254 563 229 577.5 Q204 592 172 592 Q145 592 129.5 584 Q114 576 106 563 Q98 550 96 533 Q94 516 94 498 L34 498 Q34 569 67 605.5 Q100 642 172 642 Q200 641 225.5 635 Q251 629 271 616 Q291 603 303 582 Q315 561 315 529 Q317 471 269 442 Z " />
<glyph glyph-name="uni00B4" unicode="&#xb4;" horiz-adv-x="512" d="M180 508 L234 634 L332 634 L235 508 L180 508 Z " />
<glyph glyph-name="uni00B6" unicode="&#xb6;" horiz-adv-x="498" d="M243 273 Q136 275 78 321 Q20 367 20 451 Q20 537 80 583.5 Q140 630 251 630 L433 630 L433 0 L371 0 L371 569 L305 569 L305 0 L243 0 L243 273 Z " />
<glyph glyph-name="uni00B7" unicode="&#xb7;" horiz-adv-x="177" d="M40 311 L137 311 L137 214 L40 214 L40 311 Z " />
<glyph glyph-name="uni00B8" unicode="&#xb8;" horiz-adv-x="509" d="M255 -175 Q219 -175 190 -163 Q161 -151 145 -137 L162 -105 Q178 -117 201.5 -127 Q225 -137 252 -137 Q275 -137 288.5 -130 Q302 -123 302 -107 Q302 -90 290.5 -83 Q279 -76 263 -76 Q240 -76 217 -86 L197 -75 L256 11 L295 11 L253 -45 Q275 -40 291 -40 Q323 -40 345 -55 Q367 -70 367 -102 Q367 -143 332.5 -159 Q298 -175 255 -175 Z " />
<glyph glyph-name="uni00B9" unicode="&#xb9;" horiz-adv-x="206" d="M118 629 L156 630 L156 239 L96 239 L96 530 Q90 526 79 523 Q69 519 52 517 Q35 515 8 515 L8 575 Q29 575 46 575.5 Q63 576 76.5 580.5 Q90 585 100.5 596 Q111 607 118 629 Z " />
<glyph glyph-name="uni00BA" unicode="&#xba;" horiz-adv-x="388" d="M195 642 Q231 642 261.5 629.5 Q292 617 314.5 593.5 Q337 570 350 537.5 Q363 505 363 465 Q363 425 350 392.5 Q337 360 314.5 337 Q292 314 261.5 301 Q231 288 195 288 Q157 288 126 301.5 Q95 315 72.5 338.5 Q50 362 37.5 394.5 Q25 427 25 465 Q25 503 37.5 535 Q50 567 72.5 591 Q95 615 126 628.5 Q157 642 195 642 Z M195 346 Q243 346 270 378.5 Q297 411 297 465 Q297 515 271.5 550.5 Q246 586 195 586 Q142 586 117 552.5 Q92 519 92 465 Q92 412 117.5 379 Q143 346 195 346 Z " />
<glyph glyph-name="uni00BB" unicode="&#xbb;" horiz-adv-x="391" d="M188 249 L50 374 L50 287 L130 218 L50 142 L50 64 L188 189 L188 249 Z M341 249 L341 189 L202 64 L202 142 L283 218 L202 287 L202 374 L341 249 Z " />
<glyph glyph-name="uni00BC" unicode="&#xbc;" horiz-adv-x="743" d="M579 630 L173 0 L107 0 L514 630 L579 630 Z M140 630 L188 630 L188 239 L118 239 L118 527 Q100 516 81.5 514 Q63 512 60 512 L30 512 L30 575 L60 575 Q93 575 110.5 585.5 Q128 596 136 619 L140 630 Z M715 151 L715 94 L649 94 L649 0 L584 0 L584 94 L373 94 L373 152 L580 396 L649 396 L649 151 L715 151 Z M584 151 L584 313 L447 151 L584 151 Z " />
<glyph glyph-name="uni00BD" unicode="&#xbd;" horiz-adv-x="757" d="M579 630 L173 0 L107 0 L514 630 L579 630 Z M140 630 L188 630 L188 239 L118 239 L118 527 Q100 516 81.5 514 Q63 512 60 512 L30 512 L30 575 L60 575 Q93 575 110.5 585.5 Q128 596 136 619 L140 630 Z M553 62 L727 62 L727 0 L436 0 L436 42 L549 139 Q589 174 616.5 203.5 Q644 233 644 271 Q644 302 627 319 Q610 336 578 336 Q545 336 525 313 Q513 298 508 277.5 Q503 257 508 234 L509 226 L444 226 L443 231 Q429 301 470 350 Q508 396 579 396 Q642 396 678 363 Q714 330 714 273 Q714 220 681 179.5 Q648 139 605 104 L553 62 Z " />
<glyph glyph-name="uni00BE" unicode="&#xbe;" horiz-adv-x="825" d="M663 632 L256 1 L190 1 L597 632 L663 632 Z M328 349 Q328 316 315 293 Q302 270 280 255.5 Q258 241 230 235 Q202 229 173 229 Q26 229 26 373 L26 378 L87 378 L87 373 Q87 323 107.5 301 Q128 279 174 279 Q191 279 207.5 282.5 Q224 286 237.5 294 Q251 302 259.5 315.5 Q268 329 268 349 Q268 369 259.5 381.5 Q251 394 237.5 401 Q224 408 207 410.5 Q190 413 174 413 Q165 413 157 412.5 Q149 412 141 411 L136 410 L136 469 L141 468 Q156 465 173 465 Q206 465 231 477 Q256 489 256 527 Q254 562 229.5 576.5 Q205 591 173 591 Q146 591 131 583.5 Q116 576 108 563 Q100 550 98 533 Q96 516 96 497 L96 492 L35 492 L35 497 Q35 566 68 604 Q101 642 173 642 Q201 641 226.5 635 Q252 629 272 616 Q292 603 304 581.5 Q316 560 316 528 Q318 470 270 441 Q328 411 328 349 Z M797 151 L797 94 L731 94 L731 0 L666 0 L666 94 L455 94 L455 152 L662 396 L731 396 L731 151 L797 151 Z M666 151 L666 313 L529 151 L666 151 Z " />
<glyph glyph-name="uni00BF" unicode="&#xbf;" horiz-adv-x="470" d="M279 339 L182 339 L182 436 L279 436 L279 339 Z M329 -100 Q356 -71 358 -32.5 Q360 6 355 44 L436 44 Q444 -7 432.5 -55.5 Q421 -104 392 -138 Q363 -171 322 -188.5 Q281 -206 232 -206 Q136 -206 81.5 -156.5 Q27 -107 27 -18 Q27 84 118 162 Q145 186 167 217 Q189 248 190 284 L271 284 Q272 257 263 233.5 Q254 210 239.5 189.5 Q225 169 208 151.5 Q191 134 176 119 Q153 96 133 62.5 Q113 29 114 -17 Q114 -79 146 -108 Q178 -137 238 -137 Q295 -137 329 -100 Z " />
<glyph glyph-name="uni00C0" unicode="&#xc0;" horiz-adv-x="620" d="M288 677 L191 803 L289 803 L343 677 L288 677 Z M522 0 L608 0 L358 630 L262 630 L12 0 L97 0 L166 184 L453 184 L522 0 Z M192 251 L308 560 L312 560 L428 251 L192 251 Z " />
<glyph glyph-name="uni00C1" unicode="&#xc1;" horiz-adv-x="620" d="M277 677 L331 803 L429 803 L332 677 L277 677 Z M522 0 L608 0 L358 630 L262 630 L12 0 L97 0 L166 184 L453 184 L522 0 Z M192 251 L308 560 L312 560 L428 251 L192 251 Z " />
<glyph glyph-name="uni00C2" unicode="&#xc2;" horiz-adv-x="620" d="M358 803 L438 677 L378 677 L310 751 L242 677 L182 677 L262 803 L358 803 Z M522 0 L608 0 L358 630 L262 630 L12 0 L97 0 L166 184 L453 184 L522 0 Z M192 251 L308 560 L312 560 L428 251 L192 251 Z " />
<glyph glyph-name="uni00C3" unicode="&#xc3;" horiz-adv-x="620" d="M178 675 Q178 731 198.5 764.5 Q219 798 263 798 Q283 798 299.5 789 Q316 780 330.5 768.5 Q345 757 358.5 748 Q372 739 387 739 Q408 739 415.5 753.5 Q423 768 425 795 L477 795 Q477 739 456 705.5 Q435 672 392 672 Q371 672 354.5 681 Q338 690 323.5 701.5 Q309 713 295.5 722 Q282 731 267 731 Q246 731 238.5 716.5 Q231 702 229 675 L178 675 Z M522 0 L453 184 L166 184 L97 0 L12 0 L262 630 L358 630 L608 0 L522 0 Z M192 251 L428 251 L312 560 L308 560 L192 251 Z " />
<glyph glyph-name="uni00C4" unicode="&#xc4;" horiz-adv-x="620" d="M190 778 L287 778 L287 681 L190 681 L190 778 Z M338 778 L435 778 L435 681 L338 681 L338 778 Z M522 0 L608 0 L358 630 L262 630 L12 0 L97 0 L166 184 L453 184 L522 0 Z M192 251 L308 560 L312 560 L428 251 L192 251 Z " />
<glyph glyph-name="uni00C5" unicode="&#xc5;" horiz-adv-x="620" d="M310 836 Q348 836 374 810.5 Q400 785 400 748 Q400 710 374 684.5 Q348 659 310 659 Q272 659 246 684.5 Q220 710 220 748 Q220 785 246 810.5 Q272 836 310 836 Z M359 748 Q359 771 345 785 Q331 799 310 799 Q289 799 275.5 785 Q262 771 262 748 Q262 725 275.5 710.5 Q289 696 310 696 Q331 696 345 710.5 Q359 725 359 748 Z M522 0 L453 184 L166 184 L97 0 L12 0 L262 630 L358 630 L608 0 L522 0 Z M192 251 L428 251 L312 560 L308 560 L192 251 Z " />
<glyph glyph-name="uni00C6" unicode="&#xc6;" horiz-adv-x="946" d="M547 66 L547 288 L855 288 L855 354 L547 354 L547 564 L897 564 L897 630 L448 630 L12 0 L108 0 L232 182 L466 182 L466 0 L908 0 L908 66 L547 66 Z M267 251 L462 525 L466 525 L466 251 L267 251 Z " />
<glyph glyph-name="uni00C7" unicode="&#xc7;" horiz-adv-x="660" d="M339 57 Q420 57 473.5 98 Q527 139 549 214 L629 192 Q617 146 592 109 Q567 72 531 45 Q495 18 450.5 3.5 Q406 -11 355 -12 L327 -51 Q349 -46 366 -46 Q397 -46 419 -60.5 Q441 -75 441 -107 Q441 -130 430 -144.5 Q419 -159 401.5 -167 Q384 -175 364 -178 Q344 -181 326 -181 Q291 -181 263 -169 Q235 -157 219 -143 L236 -111 Q252 -123 275.5 -133 Q299 -143 326 -143 Q349 -143 362.5 -136 Q376 -129 376 -113 Q376 -96 364.5 -89 Q353 -82 337 -82 Q314 -82 291 -92 L271 -81 L318 -12 L318 -11 Q263 -6 211 17 Q159 40 119 81.5 Q79 123 55 181.5 Q31 240 31 315 Q31 395 58 456.5 Q85 518 130 559 Q175 600 232 621 Q289 642 348 642 Q400 642 446 627.5 Q492 613 528.5 586 Q565 559 591 521.5 Q617 484 629 437 L549 416 Q527 491 473.5 532 Q420 573 339 573 Q236 573 177 504 Q118 435 118 315 Q118 195 177 126 Q236 57 339 57 Z " />
<glyph glyph-name="uni00C8" unicode="&#xc8;" horiz-adv-x="539" d="M261 677 L164 803 L262 803 L316 677 L261 677 Z M141 66 L141 289 L448 288 L448 354 L141 354 L141 564 L490 564 L490 630 L60 630 L60 0 L501 0 L501 66 L141 66 Z " />
<glyph glyph-name="uni00C9" unicode="&#xc9;" horiz-adv-x="539" d="M245 677 L299 803 L398 803 L301 677 L245 677 Z M141 66 L141 289 L448 288 L448 354 L141 354 L141 564 L490 564 L490 630 L60 630 L60 0 L501 0 L501 66 L141 66 Z " />
<glyph glyph-name="uni00CA" unicode="&#xca;" horiz-adv-x="539" d="M329 803 L409 677 L349 677 L281 751 L213 677 L153 677 L233 803 L329 803 Z M141 66 L141 289 L448 288 L448 354 L141 354 L141 564 L490 564 L490 630 L60 630 L60 0 L501 0 L501 66 L141 66 Z " />
<glyph glyph-name="uni00CB" unicode="&#xcb;" horiz-adv-x="539" d="M158 681 L255 681 L255 778 L158 778 L158 681 Z M306 681 L404 681 L404 778 L306 778 L306 681 Z M141 66 L141 289 L448 288 L448 354 L141 354 L141 564 L490 564 L490 630 L60 630 L60 0 L501 0 L501 66 L141 66 Z " />
<glyph glyph-name="uni00CC" unicode="&#xcc;" horiz-adv-x="204" d="M76 677 L-21 803 L77 803 L131 677 L76 677 Z M144 0 L63 0 L63 630 L144 630 L144 0 Z " />
<glyph glyph-name="uni00CD" unicode="&#xcd;" horiz-adv-x="204" d="M73 677 L127 803 L225 803 L128 677 L73 677 Z M141 0 L60 0 L60 630 L141 630 L141 0 Z " />
<glyph glyph-name="uni00CE" unicode="&#xce;" horiz-adv-x="214" d="M155 803 L235 677 L175 677 L107 751 L39 677 L-21 677 L59 803 L155 803 Z M148 0 L67 0 L67 630 L148 630 L148 0 Z " />
<glyph glyph-name="uni00CF" unicode="&#xcf;" horiz-adv-x="250" d="M2 681 L99 681 L99 778 L2 778 L2 681 Z M151 681 L248 681 L248 778 L151 778 L151 681 Z M166 0 L85 0 L85 630 L166 630 L166 0 Z " />
<glyph glyph-name="uni00D0" unicode="&#xd0;" horiz-adv-x="639" d="M281 630 Q355 630 415 608.5 Q475 587 517 546.5 Q559 506 581.5 447.5 Q604 389 604 315 Q604 241 581.5 182.5 Q559 124 517 83.5 Q475 43 415 21.5 Q355 0 281 0 L70 0 L70 292 L6 292 L6 357 L70 357 L70 630 L281 630 Z M286 66 Q402 66 463 130 Q524 194 524 315 Q524 435 463 499.5 Q402 564 286 564 L150 564 L150 357 L334 357 L334 292 L150 292 L150 66 L286 66 Z " />
<glyph glyph-name="uni00D1" unicode="&#xd1;" horiz-adv-x="627" d="M179 674 Q179 730 199.5 763.5 Q220 797 264 797 Q284 797 300.5 788 Q317 779 331.5 767.5 Q346 756 359.5 747 Q373 738 388 738 Q409 738 416.5 752.5 Q424 767 426 794 L478 794 Q478 738 457 704.5 Q436 671 393 671 Q372 671 355.5 680 Q339 689 324.5 700.5 Q310 712 296.5 721 Q283 730 268 730 Q247 730 239.5 715.5 Q232 701 230 674 L179 674 Z M486 79 L486 630 L567 630 L567 0 L441 0 L145 551 L141 551 L141 0 L60 0 L60 630 L186 630 L482 79 L486 79 Z " />
<glyph glyph-name="uni00D2" unicode="&#xd2;" horiz-adv-x="668" d="M361 677 L306 677 L209 803 L307 803 L361 677 Z M334 57 Q436 57 494 126 Q552 195 552 315 Q552 435 494 504 Q436 573 334 573 Q231 573 173.5 504 Q116 435 116 315 Q116 195 173.5 126 Q231 57 334 57 Z M334 642 Q398 642 453 618.5 Q508 595 549 552 Q590 509 613.5 448.5 Q637 388 637 314 Q637 241 613.5 181 Q590 121 549 78 Q508 35 453 11.5 Q398 -12 334 -12 Q270 -12 215 11.5 Q160 35 119 78 Q78 121 54.5 181 Q31 241 31 314 Q31 388 54.5 448.5 Q78 509 119 552 Q160 595 215 618.5 Q270 642 334 642 Z " />
<glyph glyph-name="uni00D3" unicode="&#xd3;" horiz-adv-x="668" d="M367 677 L312 677 L366 803 L464 803 L367 677 Z M334 57 Q436 57 494 126 Q552 195 552 315 Q552 435 494 504 Q436 573 334 573 Q231 573 173.5 504 Q116 435 116 315 Q116 195 173.5 126 Q231 57 334 57 Z M334 642 Q398 642 453 618.5 Q508 595 549 552 Q590 509 613.5 448.5 Q637 388 637 314 Q637 241 613.5 181 Q590 121 549 78 Q508 35 453 11.5 Q398 -12 334 -12 Q270 -12 215 11.5 Q160 35 119 78 Q78 121 54.5 181 Q31 241 31 314 Q31 388 54.5 448.5 Q78 509 119 552 Q160 595 215 618.5 Q270 642 334 642 Z " />
<glyph glyph-name="uni00D4" unicode="&#xd4;" horiz-adv-x="668" d="M382 803 L462 677 L402 677 L334 751 L266 677 L206 677 L286 803 L382 803 Z M334 57 Q436 57 494 126 Q552 195 552 315 Q552 435 494 504 Q436 573 334 573 Q231 573 173.5 504 Q116 435 116 315 Q116 195 173.5 126 Q231 57 334 57 Z M334 642 Q398 642 453 618.5 Q508 595 549 552 Q590 509 613.5 448.5 Q637 388 637 314 Q637 241 613.5 181 Q590 121 549 78 Q508 35 453 11.5 Q398 -12 334 -12 Q270 -12 215 11.5 Q160 35 119 78 Q78 121 54.5 181 Q31 241 31 314 Q31 388 54.5 448.5 Q78 509 119 552 Q160 595 215 618.5 Q270 642 334 642 Z " />
<glyph glyph-name="uni00D5" unicode="&#xd5;" horiz-adv-x="668" d="M185 675 Q185 731 205.5 764.5 Q226 798 270 798 Q290 798 306.5 789 Q323 780 337.5 768.5 Q352 757 365.5 748 Q379 739 394 739 Q415 739 422.5 753.5 Q430 768 432 795 L484 795 Q484 739 463 705.5 Q442 672 399 672 Q378 672 361.5 681 Q345 690 330.5 701.5 Q316 713 302.5 722 Q289 731 274 731 Q253 731 245.5 716.5 Q238 702 236 675 L185 675 Z M334 57 Q436 57 494 126 Q552 195 552 315 Q552 435 494 504 Q436 573 334 573 Q231 573 173.5 504 Q116 435 116 315 Q116 195 173.5 126 Q231 57 334 57 Z M334 642 Q398 642 453 618.5 Q508 595 549 552 Q590 509 613.5 448.5 Q637 388 637 314 Q637 241 613.5 181 Q590 121 549 78 Q508 35 453 11.5 Q398 -12 334 -12 Q270 -12 215 11.5 Q160 35 119 78 Q78 121 54.5 181 Q31 241 31 314 Q31 388 54.5 448.5 Q78 509 119 552 Q160 595 215 618.5 Q270 642 334 642 Z " />
<glyph glyph-name="uni00D6" unicode="&#xd6;" horiz-adv-x="668" d="M210 778 L307 778 L307 681 L209 681 L210 778 Z M358 778 L455 778 L455 681 L358 681 L358 778 Z M334 57 Q436 57 494 126 Q552 195 552 315 Q552 435 494 504 Q436 573 334 573 Q231 573 173.5 504 Q116 435 116 315 Q116 195 173.5 126 Q231 57 334 57 Z M334 642 Q398 642 453 618.5 Q508 595 549 552 Q590 509 613.5 448.5 Q637 388 637 314 Q637 241 613.5 181 Q590 121 549 78 Q508 35 453 11.5 Q398 -12 334 -12 Q270 -12 215 11.5 Q160 35 119 78 Q78 121 54.5 181 Q31 241 31 314 Q31 388 54.5 448.5 Q78 509 119 552 Q160 595 215 618.5 Q270 642 334 642 Z " />
<glyph glyph-name="uni00D7" unicode="&#xd7;" horiz-adv-x="529" d="M467 462 L423 506 L264 347 L106 506 L62 462 L220 303 L62 145 L106 101 L264 259 L423 101 L467 145 L308 303 L467 462 Z " />
<glyph glyph-name="uni00D8" unicode="&#xd8;" horiz-adv-x="685" d="M568 562 Q609 519 631.5 460 Q654 401 654 329 Q654 256 630 196 Q606 136 564 93 Q522 50 465.5 26.5 Q409 3 343 3 Q238 3 157 62 L97 -12 L54 21 L117 98 Q76 141 53.5 199 Q31 257 31 329 Q31 403 55 463.5 Q79 524 121 567 Q163 610 220 633.5 Q277 657 343 657 Q449 657 528 598 L589 672 L631 639 L568 562 Z M118 330 Q118 225 166 157 L482 543 Q426 588 343 588 Q238 588 178 519.5 Q118 451 118 330 Z M343 72 Q447 72 507 141 Q567 210 567 330 Q567 384 555 427 Q543 470 520 503 L203 118 Q260 72 343 72 Z " />
<glyph glyph-name="uni00D9" unicode="&#xd9;" horiz-adv-x="602" d="M276 677 L179 803 L277 803 L331 677 L276 677 Z M549 630 L549 233 Q549 166 529.5 119.5 Q510 73 476.5 44 Q443 15 397.5 1.5 Q352 -12 300 -12 Q249 -12 204 1.5 Q159 15 125.5 44 Q92 73 72.5 119.5 Q53 166 53 233 L53 630 L134 630 L133 247 Q133 148 176 102.5 Q219 57 300 57 Q381 57 424.5 102.5 Q468 148 468 246 L468 630 L549 630 Z " />
<glyph glyph-name="uni00DA" unicode="&#xda;" horiz-adv-x="602" d="M271 677 L325 803 L423 803 L326 677 L271 677 Z M549 630 L549 233 Q549 166 529.5 119.5 Q510 73 476.5 44 Q443 15 397.5 1.5 Q352 -12 300 -12 Q249 -12 204 1.5 Q159 15 125.5 44 Q92 73 72.5 119.5 Q53 166 53 233 L53 630 L134 630 L133 247 Q133 148 176 102.5 Q219 57 300 57 Q381 57 424.5 102.5 Q468 148 468 246 L468 630 L549 630 Z " />
<glyph glyph-name="uni00DB" unicode="&#xdb;" horiz-adv-x="602" d="M349 803 L429 677 L369 677 L301 751 L233 677 L173 677 L253 803 L349 803 Z M549 630 L549 233 Q549 166 529.5 119.5 Q510 73 476.5 44 Q443 15 397.5 1.5 Q352 -12 300 -12 Q249 -12 204 1.5 Q159 15 125.5 44 Q92 73 72.5 119.5 Q53 166 53 233 L53 630 L134 630 L133 247 Q133 148 176 102.5 Q219 57 300 57 Q381 57 424.5 102.5 Q468 148 468 246 L468 630 L549 630 Z " />
<glyph glyph-name="uni00DC" unicode="&#xdc;" horiz-adv-x="602" d="M178 681 L178 778 L275 778 L275 681 L178 681 Z M327 681 L327 778 L424 778 L424 681 L327 681 Z M549 630 L549 233 Q549 166 529.5 119.5 Q510 73 476.5 44 Q443 15 397.5 1.5 Q352 -12 300 -12 Q249 -12 204 1.5 Q159 15 125.5 44 Q92 73 72.5 119.5 Q53 166 53 233 L53 630 L134 630 L133 247 Q133 148 176 102.5 Q219 57 300 57 Q381 57 424.5 102.5 Q468 148 468 246 L468 630 L549 630 Z " />
<glyph glyph-name="uni00DD" unicode="&#xdd;" horiz-adv-x="566" d="M263 677 L317 803 L415 803 L318 677 L263 677 Z M243 0 L323 0 L323 249 L554 630 L463 630 L283 317 L104 630 L12 630 L242 249 L243 0 Z " />
<glyph glyph-name="uni00DE" unicode="&#xde;" horiz-adv-x="546" d="M305 526 Q402 526 459.5 471.5 Q517 417 517 324 Q517 231 459.5 178.5 Q402 126 305 125 L136 125 L136 0 L55 0 L55 630 L135 630 L135 526 L305 526 Z M309 191 Q372 191 404 226 Q436 261 437 325 Q437 390 405 425 Q373 460 310 460 L136 460 L136 191 L309 191 Z " />
<glyph glyph-name="uni00DF" unicode="&#xdf;" horiz-adv-x="443" d="M413 176 Q414 113 384.5 65.5 Q355 18 304 1 Q287 -6 264.5 -9 Q242 -12 219 -12 Q198 -12 181 -9 L184 59 Q192 58 200.5 57.5 Q209 57 217 57 Q333 57 333 175 Q335 223 306 252 Q286 271 262 277 Q238 283 212 283 Q203 283 196.5 282.5 Q190 282 184 281 L184 363 Q200 359 221 359 Q271 360 293.5 388.5 Q316 417 318 471 Q320 515 292 543 Q262 573 221 573 Q168 573 149.5 543 Q131 513 131 465 L131 0 L50 0 L50 464 Q50 543 95 592.5 Q140 642 221 642 Q300 642 351 591 Q375 566 387 533.5 Q399 501 398 465 Q399 417 381 380.5 Q363 344 331 324 Q373 304 393 262.5 Q413 221 413 176 Z " />
<glyph glyph-name="uni00E0" unicode="&#xe0;" horiz-adv-x="453" d="M207 504 L110 630 L208 630 L262 504 L207 504 Z M438 47 L448 50 L448 -3 Q442 -6 435 -8 Q428 -9 420 -10.5 Q412 -12 403 -12 Q381 -12 366.5 -5 Q352 2 343 11.5 Q334 21 329 32 Q324 43 322 51 Q315 43 303 32 Q291 21 274 11.5 Q257 2 235 -5 Q213 -12 187 -12 Q149 -12 121 -1 Q93 10 74.5 28 Q56 46 47 68.5 Q38 91 38 114 Q38 156 54 181 Q70 206 95.5 221 Q121 236 152 243.5 Q183 251 213 256 Q256 264 287.5 274 Q319 284 319 315 Q319 347 297 365 Q275 383 235 383 Q191 383 167.5 359.5 Q144 336 136 295 L57 310 Q59 322 66 344.5 Q73 367 92.5 390 Q112 413 146.5 430 Q181 447 236 447 Q305 447 351.5 415 Q398 383 398 308 L398 73 Q398 44 421 44 Q428 44 438 47 Z M320 161 L320 230 Q302 222 272 214 Q242 206 223 201 Q207 197 188.5 192 Q170 187 154.5 178 Q139 169 129 155.5 Q119 142 119 121 Q119 84 143 69 Q167 54 200 54 Q249 54 284.5 81.5 Q320 109 320 161 Z " />
<glyph glyph-name="uni00E1" unicode="&#xe1;" horiz-adv-x="453" d="M191 504 L245 630 L343 630 L246 504 L191 504 Z M438 47 L448 50 L448 -3 Q442 -6 435 -8 Q428 -9 420 -10.5 Q412 -12 403 -12 Q381 -12 366.5 -5 Q352 2 343 11.5 Q334 21 329 32 Q324 43 322 51 Q315 43 303 32 Q291 21 274 11.5 Q257 2 235 -5 Q213 -12 187 -12 Q149 -12 121 -1 Q93 10 74.5 28 Q56 46 47 68.5 Q38 91 38 114 Q38 156 54 181 Q70 206 95.5 221 Q121 236 152 243.5 Q183 251 213 256 Q256 264 287.5 274 Q319 284 319 315 Q319 347 297 365 Q275 383 235 383 Q191 383 167.5 359.5 Q144 336 136 295 L57 310 Q59 322 66 344.5 Q73 367 92.5 390 Q112 413 146.5 430 Q181 447 236 447 Q305 447 351.5 415 Q398 383 398 308 L398 73 Q398 44 421 44 Q428 44 438 47 Z M320 161 L320 230 Q302 222 272 214 Q242 206 223 201 Q207 197 188.5 192 Q170 187 154.5 178 Q139 169 129 155.5 Q119 142 119 121 Q119 84 143 69 Q167 54 200 54 Q249 54 284.5 81.5 Q320 109 320 161 Z " />
<glyph glyph-name="uni00E2" unicode="&#xe2;" horiz-adv-x="453" d="M287 602 L367 476 L307 476 L239 550 L171 476 L111 476 L191 602 L287 602 Z M438 47 L448 50 L448 -3 Q442 -6 435 -8 Q428 -9 420 -10.5 Q412 -12 403 -12 Q381 -12 366.5 -5 Q352 2 343 11.5 Q334 21 329 32 Q324 43 322 51 Q315 43 303 32 Q291 21 274 11.5 Q257 2 235 -5 Q213 -12 187 -12 Q149 -12 121 -1 Q93 10 74.5 28 Q56 46 47 68.5 Q38 91 38 114 Q38 156 54 181 Q70 206 95.5 221 Q121 236 152 243.5 Q183 251 213 256 Q256 264 287.5 274 Q319 284 319 315 Q319 347 297 365 Q275 383 235 383 Q191 383 167.5 359.5 Q144 336 136 295 L57 310 Q59 322 66 344.5 Q73 367 92.5 390 Q112 413 146.5 430 Q181 447 236 447 Q305 447 351.5 415 Q398 383 398 308 L398 73 Q398 44 421 44 Q428 44 438 47 Z M320 161 L320 230 Q302 222 272 214 Q242 206 223 201 Q207 197 188.5 192 Q170 187 154.5 178 Q139 169 129 155.5 Q119 142 119 121 Q119 84 143 69 Q167 54 200 54 Q249 54 284.5 81.5 Q320 109 320 161 Z " />
<glyph glyph-name="uni00E3" unicode="&#xe3;" horiz-adv-x="453" d="M84 506 Q84 562 104.5 595.5 Q125 629 169 629 Q189 629 205.5 620 Q222 611 236.5 599.5 Q251 588 264.5 579 Q278 570 293 570 Q314 570 321.5 584.5 Q329 599 331 626 L383 626 Q383 570 362 536.5 Q341 503 298 503 Q277 503 260.5 512 Q244 521 229.5 532.5 Q215 544 201.5 553 Q188 562 173 562 Q152 562 144.5 547.5 Q137 533 135 506 L84 506 Z M438 47 L448 50 L448 -3 Q442 -6 435 -8 Q428 -9 420 -10.5 Q412 -12 403 -12 Q381 -12 366.5 -5 Q352 2 343 11.5 Q334 21 329 32 Q324 43 322 51 Q315 43 303 32 Q291 21 274 11.5 Q257 2 235 -5 Q213 -12 187 -12 Q149 -12 121 -1 Q93 10 74.5 28 Q56 46 47 68.5 Q38 91 38 114 Q38 156 54 181 Q70 206 95.5 221 Q121 236 152 243.5 Q183 251 213 256 Q256 264 287.5 274 Q319 284 319 315 Q319 347 297 365 Q275 383 235 383 Q191 383 167.5 359.5 Q144 336 136 295 L57 310 Q59 322 66 344.5 Q73 367 92.5 390 Q112 413 146.5 430 Q181 447 236 447 Q305 447 351.5 415 Q398 383 398 308 L398 73 Q398 44 421 44 Q428 44 438 47 Z M320 161 L320 230 Q302 222 272 214 Q242 206 223 201 Q207 197 188.5 192 Q170 187 154.5 178 Q139 169 129 155.5 Q119 142 119 121 Q119 84 143 69 Q167 54 200 54 Q249 54 284.5 81.5 Q320 109 320 161 Z " />
<glyph glyph-name="uni00E4" unicode="&#xe4;" horiz-adv-x="453" d="M104 626 L201 626 L201 528 L104 528 L104 626 Z M252 626 L350 626 L350 528 L252 528 L252 626 Z M438 47 L448 50 L448 -3 Q442 -6 435 -8 Q428 -9 420 -10.5 Q412 -12 403 -12 Q381 -12 366.5 -5 Q352 2 343 11.5 Q334 21 329 32 Q324 43 322 51 Q315 43 303 32 Q291 21 274 11.5 Q257 2 235 -5 Q213 -12 187 -12 Q149 -12 121 -1 Q93 10 74.5 28 Q56 46 47 68.5 Q38 91 38 114 Q38 156 54 181 Q70 206 95.5 221 Q121 236 152 243.5 Q183 251 213 256 Q256 264 287.5 274 Q319 284 319 315 Q319 347 297 365 Q275 383 235 383 Q191 383 167.5 359.5 Q144 336 136 295 L57 310 Q59 322 66 344.5 Q73 367 92.5 390 Q112 413 146.5 430 Q181 447 236 447 Q305 447 351.5 415 Q398 383 398 308 L398 73 Q398 44 421 44 Q428 44 438 47 Z M320 161 L320 230 Q302 222 272 214 Q242 206 223 201 Q207 197 188.5 192 Q170 187 154.5 178 Q139 169 129 155.5 Q119 142 119 121 Q119 84 143 69 Q167 54 200 54 Q249 54 284.5 81.5 Q320 109 320 161 Z " />
<glyph glyph-name="uni00E5" unicode="&#xe5;" horiz-adv-x="453" d="M221 678 Q259 678 285 652.5 Q311 627 311 590 Q311 552 285 526.5 Q259 501 221 501 Q183 501 157 526.5 Q131 552 131 590 Q131 627 157 652.5 Q183 678 221 678 Z M269 590 Q269 613 255.5 627 Q242 641 221 641 Q200 641 186.5 627 Q173 613 173 590 Q173 567 186.5 552.5 Q200 538 221 538 Q242 538 255.5 552.5 Q269 567 269 590 Z M438 47 L448 50 L448 -3 Q442 -6 435 -8 Q428 -9 420 -10.5 Q412 -12 403 -12 Q381 -12 366.5 -5 Q352 2 343 11.5 Q334 21 329 32 Q324 43 322 51 Q315 43 303 32 Q291 21 274 11.5 Q257 2 235 -5 Q213 -12 187 -12 Q149 -12 121 -1 Q93 10 74.5 28 Q56 46 47 68.5 Q38 91 38 114 Q38 156 54 181 Q70 206 95.5 221 Q121 236 152 243.5 Q183 251 213 256 Q256 264 287.5 274 Q319 284 319 315 Q319 347 297 365 Q275 383 235 383 Q191 383 167.5 359.5 Q144 336 136 295 L57 310 Q59 322 66 344.5 Q73 367 92.5 390 Q112 413 146.5 430 Q181 447 236 447 Q305 447 351.5 415 Q398 383 398 308 L398 73 Q398 44 421 44 Q428 44 438 47 Z M320 161 L320 230 Q302 222 272 214 Q242 206 223 201 Q207 197 188.5 192 Q170 187 154.5 178 Q139 169 129 155.5 Q119 142 119 121 Q119 84 143 69 Q167 54 200 54 Q249 54 284.5 81.5 Q320 109 320 161 Z " />
<glyph glyph-name="uni00E6" unicode="&#xe6;" horiz-adv-x="768" d="M667 139 L739 123 Q717 54 662 21 Q607 -12 538 -12 Q428 -12 365 68 Q358 58 344.5 44.5 Q331 31 309 18.5 Q287 6 256.5 -3 Q226 -12 184 -12 Q146 -12 118 -1 Q90 10 71.5 28 Q53 46 44 68.5 Q35 91 35 114 Q35 156 51.5 182 Q68 208 93.5 223 Q119 238 150.5 245 Q182 252 212 257 Q254 265 285 275 Q316 285 316 315 Q316 347 294 365 Q272 383 232 383 Q188 383 164.5 359.5 Q141 336 133 295 L54 310 Q56 322 63 344.5 Q70 367 89.5 390 Q109 413 143.5 430 Q178 447 233 447 Q252 447 273 444 Q294 441 314 434 Q334 427 350.5 414.5 Q367 402 377 384 Q411 420 450.5 434 Q490 448 538 448 Q583 448 620 431.5 Q657 415 683.5 386 Q710 357 724.5 318.5 Q739 280 739 236 L739 194 L399 194 Q406 130 441.5 91 Q477 52 539 52 Q584 52 617.5 74 Q651 96 667 139 Z M401 248 L656 248 Q652 303 621 344 Q590 385 530 385 Q468 385 438 344.5 Q408 304 401 248 Z M317 161 L317 230 Q299 223 269 214.5 Q239 206 220 201 Q204 198 185.5 192.5 Q167 187 151.5 178 Q136 169 126 155.5 Q116 142 116 121 Q116 85 140 69.5 Q164 54 197 54 Q246 54 281.5 81.5 Q317 109 317 161 Z " />
<glyph glyph-name="uni00E7" unicode="&#xe7;" horiz-adv-x="480" d="M246 51 Q295 51 327.5 78 Q360 105 374 153 L450 132 Q433 68 382 30 Q331 -8 264 -12 L237 -48 Q259 -43 275 -43 Q307 -43 329 -58 Q351 -73 351 -105 Q351 -146 316.5 -162 Q282 -178 239 -178 Q203 -178 174 -166.5 Q145 -155 129 -141 L146 -109 Q162 -121 185.5 -130.5 Q209 -140 236 -140 Q259 -140 272.5 -133 Q286 -126 286 -110 Q286 -93 274.5 -86 Q263 -79 247 -79 Q224 -79 201 -89 L181 -79 L227 -11 Q185 -7 149 11.5 Q113 30 86 59.5 Q59 89 44 129 Q29 169 29 217 Q29 266 45 308 Q61 350 90.5 380.5 Q120 411 161.5 429 Q203 447 252 447 Q287 447 319 437 Q351 427 377.5 408.5 Q404 390 423.5 363 Q443 336 451 302 L374 281 Q361 330 328 357 Q295 384 246 384 Q183 384 147 339.5 Q111 295 111 218 Q111 140 147 95.5 Q183 51 246 51 Z " />
<glyph glyph-name="uni00E8" unicode="&#xe8;" horiz-adv-x="480" d="M270 504 L215 504 L118 630 L216 630 L270 504 Z M379 138 L451 122 Q429 53 374 20.5 Q319 -12 250 -12 Q139 -12 75 70 Q49 102 38.5 145.5 Q28 189 29 228 Q31 327 90.5 387 Q150 447 250 447 Q295 447 332.5 430.5 Q370 414 396 385 Q422 356 436.5 317.5 Q451 279 451 235 L451 193 L111 193 Q118 129 153.5 90 Q189 51 251 51 Q296 51 329.5 73 Q363 95 379 138 Z M113 247 L368 247 Q364 302 333 343 Q302 384 242 384 Q179 384 149.5 344 Q120 304 113 247 Z " />
<glyph glyph-name="uni00E9" unicode="&#xe9;" horiz-adv-x="480" d="M214 504 L268 630 L366 630 L269 504 L214 504 Z M379 138 L451 122 Q429 53 374 20.5 Q319 -12 250 -12 Q139 -12 75 70 Q49 102 38.5 145.5 Q28 189 29 228 Q31 327 90.5 387 Q150 447 250 447 Q295 447 332.5 430.5 Q370 414 396 385 Q422 356 436.5 317.5 Q451 279 451 235 L451 193 L111 193 Q118 129 153.5 90 Q189 51 251 51 Q296 51 329.5 73 Q363 95 379 138 Z M113 247 L368 247 Q364 302 333 343 Q302 384 242 384 Q179 384 149.5 344 Q120 304 113 247 Z " />
<glyph glyph-name="uni00EA" unicode="&#xea;" horiz-adv-x="480" d="M288 630 L368 504 L308 504 L240 578 L172 504 L112 504 L192 630 L288 630 Z M379 138 L451 122 Q429 53 374 20.5 Q319 -12 250 -12 Q139 -12 75 70 Q49 102 38.5 145.5 Q28 189 29 228 Q31 327 90.5 387 Q150 447 250 447 Q295 447 332.5 430.5 Q370 414 396 385 Q422 356 436.5 317.5 Q451 279 451 235 L451 193 L111 193 Q118 129 153.5 90 Q189 51 251 51 Q296 51 329.5 73 Q363 95 379 138 Z M113 247 L368 247 Q364 302 333 343 Q302 384 242 384 Q179 384 149.5 344 Q120 304 113 247 Z " />
<glyph glyph-name="uni00EB" unicode="&#xeb;" horiz-adv-x="480" d="M122 625 L219 625 L219 528 L122 528 L122 625 Z M270 625 L368 625 L368 528 L270 528 L270 625 Z M379 138 L451 122 Q429 53 374 20.5 Q319 -12 250 -12 Q139 -12 75 70 Q49 102 38.5 145.5 Q28 189 29 228 Q31 327 90.5 387 Q150 447 250 447 Q295 447 332.5 430.5 Q370 414 396 385 Q422 356 436.5 317.5 Q451 279 451 235 L451 193 L111 193 Q118 129 153.5 90 Q189 51 251 51 Q296 51 329.5 73 Q363 95 379 138 Z M113 247 L368 247 Q364 302 333 343 Q302 384 242 384 Q179 384 149.5 344 Q120 304 113 247 Z " />
<glyph glyph-name="uni00EC" unicode="&#xec;" horiz-adv-x="201" d="M78 504 L-19 630 L79 630 L133 504 L78 504 Z M146 436 L67 436 L67 0 L146 0 L146 436 Z " />
<glyph glyph-name="uni00ED" unicode="&#xed;" horiz-adv-x="190" d="M67 504 L121 630 L219 630 L122 504 L67 504 Z M134 436 L55 436 L55 0 L134 0 L134 436 Z " />
<glyph glyph-name="uni00EE" unicode="&#xee;" horiz-adv-x="198" d="M147 630 L227 504 L167 504 L99 578 L31 504 L-29 504 L51 630 L147 630 Z M139 436 L60 436 L60 0 L139 0 L139 436 Z " />
<glyph glyph-name="uni00EF" unicode="&#xef;" horiz-adv-x="238" d="M-4 625 L93 625 L93 528 L-4 528 L-4 625 Z M145 625 L242 625 L242 528 L145 528 L145 625 Z M159 436 L80 436 L80 0 L159 0 L159 436 Z " />
<glyph glyph-name="uni00F0" unicode="&#xf0;" horiz-adv-x="498" d="M345 507 Q468 383 468 222 Q468 115 408 51.5 Q348 -12 246 -12 Q198 -12 158.5 4 Q119 20 90.5 48.5 Q62 77 46 117 Q30 157 30 205 Q30 253 45.5 292.5 Q61 332 89 360.5 Q117 389 156 404.5 Q195 420 241 420 Q267 420 289 411.5 Q311 403 328 394 Q347 382 363 367 Q354 382 339 399 Q326 415 307.5 434.5 Q289 454 263 477 L141 432 L117 487 L209 520 Q175 544 139 565 L130 571 L194 618 L198 615 Q225 601 249 585.5 Q273 570 295 553 L372 582 L399 527 L345 507 Z M399 206 Q399 281 358.5 324 Q318 367 247 367 Q177 367 136.5 324 Q96 281 96 206 Q96 131 136.5 88.5 Q177 46 247 46 Q318 46 358.5 88.5 Q399 131 399 206 Z " />
<glyph glyph-name="uni00F1" unicode="&#xf1;" horiz-adv-x="494" d="M105 506 Q105 562 125.5 595.5 Q146 629 190 629 Q210 629 226.5 620 Q243 611 257.5 599.5 Q272 588 285.5 579 Q299 570 314 570 Q335 570 342.5 584.5 Q350 599 352 626 L404 626 Q404 570 383 536.5 Q362 503 319 503 Q298 503 281.5 512 Q265 521 250.5 532.5 Q236 544 222.5 553 Q209 562 194 562 Q173 562 165.5 547.5 Q158 533 156 506 L105 506 Z M275 447 Q358 447 398.5 399 Q439 351 439 273 L439 0 L361 0 L361 267 Q361 321 335.5 352 Q310 383 259 383 Q211 383 175 349 Q139 315 139 257 L139 0 L60 0 L60 436 L124 436 L139 357 Q155 396 193.5 421.5 Q232 447 275 447 Z " />
<glyph glyph-name="uni00F2" unicode="&#xf2;" horiz-adv-x="496" d="M229 504 L132 630 L230 630 L284 504 L229 504 Z M248 447 Q297 447 337.5 429.5 Q378 412 406.5 381 Q435 350 451 308 Q467 266 467 217 Q467 168 451 126.5 Q435 85 406.5 54 Q378 23 337.5 5.5 Q297 -12 248 -12 Q199 -12 158.5 5.5 Q118 23 89.5 54 Q61 85 45 126.5 Q29 168 29 217 Q29 266 45 308 Q61 350 89.5 381 Q118 412 158.5 429.5 Q199 447 248 447 Z M248 52 Q312 52 348.5 96 Q385 140 385 218 Q385 295 348.5 339.5 Q312 384 248 384 Q184 384 147.5 339.5 Q111 295 111 218 Q111 140 147.5 96 Q184 52 248 52 Z " />
<glyph glyph-name="uni00F3" unicode="&#xf3;" horiz-adv-x="496" d="M266 504 L211 504 L265 630 L363 630 L266 504 Z M248 447 Q297 447 337.5 429.5 Q378 412 406.5 381 Q435 350 451 308 Q467 266 467 217 Q467 168 451 126.5 Q435 85 406.5 54 Q378 23 337.5 5.5 Q297 -12 248 -12 Q199 -12 158.5 5.5 Q118 23 89.5 54 Q61 85 45 126.5 Q29 168 29 217 Q29 266 45 308 Q61 350 89.5 381 Q118 412 158.5 429.5 Q199 447 248 447 Z M248 52 Q312 52 348.5 96 Q385 140 385 218 Q385 295 348.5 339.5 Q312 384 248 384 Q184 384 147.5 339.5 Q111 295 111 218 Q111 140 147.5 96 Q184 52 248 52 Z " />
<glyph glyph-name="uni00F4" unicode="&#xf4;" horiz-adv-x="496" d="M296 630 L376 504 L316 504 L248 578 L180 504 L120 504 L200 630 L296 630 Z M248 447 Q297 447 337.5 429.5 Q378 412 406.5 381 Q435 350 451 308 Q467 266 467 217 Q467 168 451 126.5 Q435 85 406.5 54 Q378 23 337.5 5.5 Q297 -12 248 -12 Q199 -12 158.5 5.5 Q118 23 89.5 54 Q61 85 45 126.5 Q29 168 29 217 Q29 266 45 308 Q61 350 89.5 381 Q118 412 158.5 429.5 Q199 447 248 447 Z M248 52 Q312 52 348.5 96 Q385 140 385 218 Q385 295 348.5 339.5 Q312 384 248 384 Q184 384 147.5 339.5 Q111 295 111 218 Q111 140 147.5 96 Q184 52 248 52 Z " />
<glyph glyph-name="uni00F5" unicode="&#xf5;" horiz-adv-x="496" d="M98 506 Q98 562 118.5 595.5 Q139 629 183 629 Q203 629 219.5 620 Q236 611 250.5 599.5 Q265 588 278.5 579 Q292 570 307 570 Q328 570 335.5 584.5 Q343 599 345 626 L397 626 Q397 570 376 536.5 Q355 503 312 503 Q291 503 274.5 512 Q258 521 243.5 532.5 Q229 544 215.5 553 Q202 562 187 562 Q166 562 158.5 547.5 Q151 533 149 506 L98 506 Z M248 447 Q297 447 337.5 429.5 Q378 412 406.5 381 Q435 350 451 308 Q467 266 467 217 Q467 168 451 126.5 Q435 85 406.5 54 Q378 23 337.5 5.5 Q297 -12 248 -12 Q199 -12 158.5 5.5 Q118 23 89.5 54 Q61 85 45 126.5 Q29 168 29 217 Q29 266 45 308 Q61 350 89.5 381 Q118 412 158.5 429.5 Q199 447 248 447 Z M248 52 Q312 52 348.5 96 Q385 140 385 218 Q385 295 348.5 339.5 Q312 384 248 384 Q184 384 147.5 339.5 Q111 295 111 218 Q111 140 147.5 96 Q184 52 248 52 Z " />
<glyph glyph-name="uni00F6" unicode="&#xf6;" horiz-adv-x="496" d="M273 602 L371 602 L371 504 L273 504 L273 602 Z M125 602 L222 602 L222 504 L125 504 L125 602 Z M248 447 Q297 447 337.5 429.5 Q378 412 406.5 381 Q435 350 451 308 Q467 266 467 217 Q467 168 451 126.5 Q435 85 406.5 54 Q378 23 337.5 5.5 Q297 -12 248 -12 Q199 -12 158.5 5.5 Q118 23 89.5 54 Q61 85 45 126.5 Q29 168 29 217 Q29 266 45 308 Q61 350 89.5 381 Q118 412 158.5 429.5 Q199 447 248 447 Z M248 52 Q312 52 348.5 96 Q385 140 385 218 Q385 295 348.5 339.5 Q312 384 248 384 Q184 384 147.5 339.5 Q111 295 111 218 Q111 140 147.5 96 Q184 52 248 52 Z " />
<glyph glyph-name="uni00F7" unicode="&#xf7;" horiz-adv-x="616" d="M57 343 L559 343 L559 281 L57 281 L57 343 Z M259 557 L357 557 L357 460 L259 460 L259 557 Z M259 164 L357 164 L357 66 L259 66 L259 164 Z " />
<glyph glyph-name="uni00F8" unicode="&#xf8;" horiz-adv-x="496" d="M412 375 Q438 344 452.5 304 Q467 264 467 217 Q467 168 451 126.5 Q435 85 406.5 54 Q378 23 337.5 5.5 Q297 -12 248 -12 Q176 -12 124 25 L72 -38 L29 -4 L83 61 Q57 91 43 131 Q29 171 29 217 Q29 266 45 308 Q61 350 89.5 381 Q118 412 158.5 429.5 Q199 447 248 447 Q320 447 372 410 L423 473 L466 441 L412 375 Z M111 218 Q111 159 132 120 L329 358 Q295 384 248 384 Q184 384 147.5 339.5 Q111 295 111 218 Z M248 52 Q312 52 348.5 96.5 Q385 141 385 218 Q385 277 364 316 L167 78 Q201 52 248 52 Z " />
<glyph glyph-name="uni00F9" unicode="&#xf9;" horiz-adv-x="489" d="M262 504 L165 630 L263 630 L317 504 L262 504 Z M219 -12 Q136 -12 95.5 36.5 Q55 85 55 162 L55 436 L134 436 L134 168 Q134 115 159.5 83.5 Q185 52 236 52 Q284 52 319.5 86 Q355 120 355 178 L355 436 L434 436 L434 0 L370 0 L355 78 Q340 39 301 13.5 Q262 -12 219 -12 Z " />
<glyph glyph-name="uni00FA" unicode="&#xfa;" horiz-adv-x="489" d="M219 504 L273 630 L371 630 L274 504 L219 504 Z M219 -12 Q136 -12 95.5 36.5 Q55 85 55 162 L55 436 L134 436 L134 168 Q134 115 159.5 83.5 Q185 52 236 52 Q284 52 319.5 86 Q355 120 355 178 L355 436 L434 436 L434 0 L370 0 L355 78 Q340 39 301 13.5 Q262 -12 219 -12 Z " />
<glyph glyph-name="uni00FB" unicode="&#xfb;" horiz-adv-x="489" d="M292 630 L372 504 L312 504 L244 578 L176 504 L116 504 L196 630 L292 630 Z M219 -12 Q136 -12 95.5 36.5 Q55 85 55 162 L55 436 L134 436 L134 168 Q134 115 159.5 83.5 Q185 52 236 52 Q284 52 319.5 86 Q355 120 355 178 L355 436 L434 436 L434 0 L370 0 L355 78 Q340 39 301 13.5 Q262 -12 219 -12 Z " />
<glyph glyph-name="uni00FC" unicode="&#xfc;" horiz-adv-x="489" d="M122 626 L219 626 L219 528 L122 529 L122 626 Z M270 626 L367 626 L367 528 L270 528 L270 626 Z M219 -12 Q136 -12 95.5 36.5 Q55 85 55 162 L55 436 L134 436 L134 168 Q134 115 159.5 83.5 Q185 52 236 52 Q284 52 319.5 86 Q355 120 355 178 L355 436 L434 436 L434 0 L370 0 L355 78 Q340 39 301 13.5 Q262 -12 219 -12 Z " />
<glyph glyph-name="uni00FD" unicode="&#xfd;" horiz-adv-x="449" d="M186 504 L240 630 L338 630 L241 504 L186 504 Z M442 436 L259 -33 Q244 -71 230 -101 Q216 -131 196 -151 Q176 -171 150.5 -178 Q125 -185 97 -185 Q84 -185 73 -183.5 Q62 -182 54 -180 Q45 -178 37 -176 L37 -110 Q43 -113 51 -116 Q58 -118 68 -119.5 Q78 -121 91 -121 Q112 -121 124 -116 Q136 -111 144.5 -100.5 Q153 -90 159.5 -73 Q166 -56 175 -32 L182 -14 L7 436 L89 436 L222 94 L226 94 L359 436 L442 436 Z " />
<glyph glyph-name="uni00FE" unicode="&#xfe;" horiz-adv-x="490" d="M461 217 Q461 163 446.5 120 Q432 77 407 48 Q382 19 348.5 3.5 Q315 -12 276 -12 Q226 -12 190.5 10 Q155 32 135 70 L133 70 L133 -174 L55 -174 L55 630 L135 630 L133 369 L135 369 Q158 407 192 426.5 Q226 446 275 446 Q319 446 353.5 429 Q388 412 412 382 Q436 352 448.5 310 Q461 268 461 217 Z M388 214 Q388 249 380.5 279 Q373 309 357 331.5 Q341 354 318 367 Q295 380 263 380 Q197 380 163.5 334 Q130 288 130 214 Q130 141 164 94 Q198 47 263 47 Q323 47 355.5 93.5 Q388 140 388 214 Z " />
<glyph glyph-name="uni00FF" unicode="&#xff;" horiz-adv-x="449" d="M102 625 L199 625 L199 528 L102 528 L102 625 Z M251 625 L348 625 L348 528 L251 528 L251 625 Z M442 436 L259 -33 Q244 -71 230 -101 Q216 -131 196 -151 Q176 -171 150.5 -178 Q125 -185 97 -185 Q84 -185 73 -183.5 Q62 -182 54 -180 Q45 -178 37 -176 L37 -110 Q43 -113 51 -116 Q58 -118 68 -119.5 Q78 -121 91 -121 Q112 -121 124 -116 Q136 -111 144.5 -100.5 Q153 -90 159.5 -73 Q166 -56 175 -32 L182 -14 L7 436 L89 436 L222 94 L226 94 L359 436 L442 436 Z " />
<glyph glyph-name="uni0100" unicode="&#x100;" horiz-adv-x="620" d="M181 747 L443 747 L443 685 L181 685 L181 747 Z M522 0 L608 0 L358 630 L262 630 L12 0 L97 0 L166 184 L453 184 L522 0 Z M192 251 L308 560 L312 560 L428 251 L192 251 Z " />
<glyph glyph-name="uni0101" unicode="&#x101;" horiz-adv-x="453" d="M92 577 L354 577 L354 515 L92 515 L92 577 Z M438 47 L448 50 L448 -3 Q442 -6 435 -8 Q428 -9 420 -10.5 Q412 -12 403 -12 Q381 -12 366.5 -5 Q352 2 343 11.5 Q334 21 329 32 Q324 43 322 51 Q315 43 303 32 Q291 21 274 11.5 Q257 2 235 -5 Q213 -12 187 -12 Q149 -12 121 -1 Q93 10 74.5 28 Q56 46 47 68.5 Q38 91 38 114 Q38 156 54 181 Q70 206 95.5 221 Q121 236 152 243.5 Q183 251 213 256 Q256 264 287.5 274 Q319 284 319 315 Q319 347 297 365 Q275 383 235 383 Q191 383 167.5 359.5 Q144 336 136 295 L57 310 Q59 322 66 344.5 Q73 367 92.5 390 Q112 413 146.5 430 Q181 447 236 447 Q305 447 351.5 415 Q398 383 398 308 L398 73 Q398 44 421 44 Q428 44 438 47 Z M320 161 L320 230 Q302 222 272 214 Q242 206 223 201 Q207 197 188.5 192 Q170 187 154.5 178 Q139 169 129 155.5 Q119 142 119 121 Q119 84 143 69 Q167 54 200 54 Q249 54 284.5 81.5 Q320 109 320 161 Z " />
<glyph glyph-name="uni0102" unicode="&#x102;" horiz-adv-x="620" d="M431 804 Q431 740 400.5 706.5 Q370 673 312 673 Q255 673 224.5 706.5 Q194 740 194 804 L251 804 Q251 769 265 749 Q279 729 312 729 Q346 729 360 749 Q374 769 374 804 L431 804 Z M522 0 L453 184 L166 184 L97 0 L12 0 L262 630 L358 630 L608 0 L522 0 Z M192 251 L428 251 L312 560 L308 560 L192 251 Z " />
<glyph glyph-name="uni0103" unicode="&#x103;" horiz-adv-x="453" d="M337 631 Q337 568 306.5 534.5 Q276 501 219 501 Q162 501 131.5 534.5 Q101 568 101 631 L157 631 Q157 596 171 576.5 Q185 557 219 557 Q252 557 266 576.5 Q280 596 280 631 L337 631 Z M438 47 L448 50 L448 -3 Q442 -6 435 -8 Q428 -9 420 -10.5 Q412 -12 403 -12 Q381 -12 366.5 -5 Q352 2 343 11.5 Q334 21 329 32 Q324 43 322 51 Q315 43 303 32 Q291 21 274 11.5 Q257 2 235 -5 Q213 -12 187 -12 Q149 -12 121 -1 Q93 10 74.5 28 Q56 46 47 68.5 Q38 91 38 114 Q38 156 54 181 Q70 206 95.5 221 Q121 236 152 243.5 Q183 251 213 256 Q256 264 287.5 274 Q319 284 319 315 Q319 347 297 365 Q275 383 235 383 Q191 383 167.5 359.5 Q144 336 136 295 L57 310 Q59 322 66 344.5 Q73 367 92.5 390 Q112 413 146.5 430 Q181 447 236 447 Q305 447 351.5 415 Q398 383 398 308 L398 73 Q398 44 421 44 Q428 44 438 47 Z M320 161 L320 230 Q302 222 272 214 Q242 206 223 201 Q207 197 188.5 192 Q170 187 154.5 178 Q139 169 129 155.5 Q119 142 119 121 Q119 84 143 69 Q167 54 200 54 Q249 54 284.5 81.5 Q320 109 320 161 Z " />
<glyph glyph-name="uni0104" unicode="&#x104;" horiz-adv-x="626" d="M563 -135 Q577 -135 590.5 -126 Q604 -117 616 -111 L616 -165 Q603 -173 585.5 -180 Q568 -187 541 -187 Q508 -187 486.5 -170 Q465 -153 465 -120 Q465 -84 493 -55 Q521 -26 556 0 L522 0 L453 184 L166 184 L97 0 L12 0 L262 630 L358 630 L608 0 Q565 -38 546 -60 Q527 -82 527 -105 Q527 -135 563 -135 Z M191 251 L428 251 L312 560 L308 560 L191 251 Z " />
<glyph glyph-name="uni0105" unicode="&#x105;" horiz-adv-x="454" d="M421 -120 Q435 -120 448.5 -111.5 Q462 -103 474 -97 L474 -150 Q461 -158 443.5 -165 Q426 -172 399 -172 Q366 -172 344.5 -155.5 Q323 -139 323 -106 Q323 -78 339.5 -54.5 Q356 -31 381 -10 Q349 -5 336 16 Q323 37 319 51 Q312 43 300 32 Q288 21 271 11.5 Q254 2 232 -5 Q210 -12 184 -12 Q146 -12 118 -1 Q90 10 71.5 28 Q53 46 44 68.5 Q35 91 35 114 Q35 155 51 180.5 Q67 206 91.5 221 Q116 236 146.5 243 Q177 250 207 255 Q229 259 248.5 263 Q268 267 283 273.5 Q298 280 307 290 Q316 300 316 315 Q316 347 294 365 Q272 383 232 383 Q188 383 164.5 359.5 Q141 336 133 295 L54 310 Q56 322 63 344.5 Q70 367 89.5 390 Q109 413 143.5 430 Q178 447 233 447 Q302 447 348.5 415 Q395 383 395 308 L395 73 Q395 44 418 44 Q425 44 435 47 L445 50 L445 -3 Q413 -32 399 -51 Q385 -70 385 -90 Q385 -120 421 -120 Z M317 161 L317 230 Q299 222 269 214 Q239 206 220 201 Q204 197 185.5 192 Q167 187 151.5 178 Q136 169 126 155.5 Q116 142 116 121 Q116 84 140 69 Q164 54 197 54 Q246 54 281.5 81.5 Q317 109 317 161 Z " />
<glyph glyph-name="uni0106" unicode="&#x106;" horiz-adv-x="660" d="M301 677 L355 803 L453 803 L356 677 L301 677 Z M339 57 Q420 57 473.5 98 Q527 139 549 214 L629 192 Q617 146 591 108 Q565 70 528.5 43.5 Q492 17 446 2.5 Q400 -12 348 -12 Q289 -12 232 9 Q175 30 130.5 71.5 Q86 113 58.5 174 Q31 235 31 315 Q31 395 58 456.5 Q85 518 130 559 Q175 600 232 621 Q289 642 348 642 Q400 642 446 627.5 Q492 613 528.5 586 Q565 559 591 521.5 Q617 484 629 437 L549 416 Q527 491 473.5 532 Q420 573 339 573 Q236 573 177 504 Q118 435 118 315 Q118 195 177 126 Q236 57 339 57 Z " />
<glyph glyph-name="uni0107" unicode="&#x107;" horiz-adv-x="480" d="M225 504 L279 630 L377 630 L280 504 L225 504 Z M246 51 Q295 51 327.5 78 Q360 105 374 153 L450 132 Q433 65 378.5 26.5 Q324 -12 252 -12 Q206 -12 165.5 4.5 Q125 21 94.5 51 Q64 81 46.5 123 Q29 165 29 217 Q29 266 45 308 Q61 350 90.5 380.5 Q120 411 161.5 429 Q203 447 252 447 Q287 447 319 437 Q351 427 377.5 408.5 Q404 390 423.5 363 Q443 336 451 302 L374 281 Q361 330 328 357 Q295 384 246 384 Q183 384 147 339.5 Q111 295 111 218 Q111 140 147 95.5 Q183 51 246 51 Z " />
<glyph glyph-name="uni0108" unicode="&#x108;" horiz-adv-x="660" d="M378 803 L458 677 L398 677 L330 751 L262 677 L202 677 L282 803 L378 803 Z M339 57 Q420 57 473.5 98 Q527 139 549 214 L629 192 Q617 146 591 108 Q565 70 528.5 43.5 Q492 17 446 2.5 Q400 -12 348 -12 Q289 -12 232 9 Q175 30 130.5 71.5 Q86 113 58.5 174 Q31 235 31 315 Q31 395 58 456.5 Q85 518 130 559 Q175 600 232 621 Q289 642 348 642 Q400 642 446 627.5 Q492 613 528.5 586 Q565 559 591 521.5 Q617 484 629 437 L549 416 Q527 491 473.5 532 Q420 573 339 573 Q236 573 177 504 Q118 435 118 315 Q118 195 177 126 Q236 57 339 57 Z " />
<glyph glyph-name="uni0109" unicode="&#x109;" horiz-adv-x="480" d="M192 630 L288 630 L368 504 L308 504 L240 578 L172 504 L112 504 L192 630 Z M246 51 Q295 51 327.5 78 Q360 105 374 153 L450 132 Q433 65 378.5 26.5 Q324 -12 252 -12 Q206 -12 165.5 4.5 Q125 21 94.5 51 Q64 81 46.5 123 Q29 165 29 217 Q29 266 45 308 Q61 350 90.5 380.5 Q120 411 161.5 429 Q203 447 252 447 Q287 447 319 437 Q351 427 377.5 408.5 Q404 390 423.5 363 Q443 336 451 302 L374 281 Q361 330 328 357 Q295 384 246 384 Q183 384 147 339.5 Q111 295 111 218 Q111 140 147 95.5 Q183 51 246 51 Z " />
<glyph glyph-name="uni010A" unicode="&#x10a;" horiz-adv-x="660" d="M281 681 L281 779 L378 779 L378 681 L281 681 Z M339 57 Q420 57 473.5 98 Q527 139 549 214 L629 192 Q617 146 591 108 Q565 70 528.5 43.5 Q492 17 446 2.5 Q400 -12 348 -12 Q289 -12 232 9 Q175 30 130.5 71.5 Q86 113 58.5 174 Q31 235 31 315 Q31 395 58 456.5 Q85 518 130 559 Q175 600 232 621 Q289 642 348 642 Q400 642 446 627.5 Q492 613 528.5 586 Q565 559 591 521.5 Q617 484 629 437 L549 416 Q527 491 473.5 532 Q420 573 339 573 Q236 573 177 504 Q118 435 118 315 Q118 195 177 126 Q236 57 339 57 Z " />
<glyph glyph-name="uni010B" unicode="&#x10b;" horiz-adv-x="480" d="M191 625 L288 625 L288 528 L191 528 L191 625 Z M246 51 Q295 51 327.5 78 Q360 105 374 153 L450 132 Q433 65 378.5 26.5 Q324 -12 252 -12 Q206 -12 165.5 4.5 Q125 21 94.5 51 Q64 81 46.5 123 Q29 165 29 217 Q29 266 45 308 Q61 350 90.5 380.5 Q120 411 161.5 429 Q203 447 252 447 Q287 447 319 437 Q351 427 377.5 408.5 Q404 390 423.5 363 Q443 336 451 302 L374 281 Q361 330 328 357 Q295 384 246 384 Q183 384 147 339.5 Q111 295 111 218 Q111 140 147 95.5 Q183 51 246 51 Z " />
<glyph glyph-name="uni010C" unicode="&#x10c;" horiz-adv-x="660" d="M282 677 L202 803 L262 803 L330 729 L398 803 L458 803 L378 677 L282 677 Z M339 57 Q420 57 473.5 98 Q527 139 549 214 L629 192 Q617 146 591 108 Q565 70 528.5 43.5 Q492 17 446 2.5 Q400 -12 348 -12 Q289 -12 232 9 Q175 30 130.5 71.5 Q86 113 58.5 174 Q31 235 31 315 Q31 395 58 456.5 Q85 518 130 559 Q175 600 232 621 Q289 642 348 642 Q400 642 446 627.5 Q492 613 528.5 586 Q565 559 591 521.5 Q617 484 629 437 L549 416 Q527 491 473.5 532 Q420 573 339 573 Q236 573 177 504 Q118 435 118 315 Q118 195 177 126 Q236 57 339 57 Z " />
<glyph glyph-name="uni010D" unicode="&#x10d;" horiz-adv-x="480" d="M192 504 L112 630 L172 630 L240 556 L308 630 L368 630 L288 504 L192 504 Z M246 51 Q295 51 327.5 78 Q360 105 374 153 L450 132 Q433 65 378.5 26.5 Q324 -12 252 -12 Q206 -12 165.5 4.5 Q125 21 94.5 51 Q64 81 46.5 123 Q29 165 29 217 Q29 266 45 308 Q61 350 90.5 380.5 Q120 411 161.5 429 Q203 447 252 447 Q287 447 319 437 Q351 427 377.5 408.5 Q404 390 423.5 363 Q443 336 451 302 L374 281 Q361 330 328 357 Q295 384 246 384 Q183 384 147 339.5 Q111 295 111 218 Q111 140 147 95.5 Q183 51 246 51 Z " />
<glyph glyph-name="uni010E" unicode="&#x10e;" horiz-adv-x="625" d="M243 677 L163 803 L223 803 L291 729 L359 803 L419 803 L339 677 L243 677 Z M60 630 L272 630 Q346 630 406 608.5 Q466 587 508 546.5 Q550 506 572.5 447.5 Q595 389 595 315 Q595 241 572.5 182.5 Q550 124 508 83.5 Q466 43 406 21.5 Q346 0 272 0 L60 0 L60 630 Z M270 66 Q386 66 447 130.5 Q508 195 508 315 Q508 435 447 499.5 Q386 564 270 564 L141 564 L141 66 L270 66 Z " />
<glyph glyph-name="uni010F" unicode="&#x10f;" horiz-adv-x="555" d="M455 505 L469 631 L568 631 L510 505 L455 505 Z M215 448 Q265 448 301 427 Q337 406 358 368 L359 368 L359 630 L438 630 L438 0 L359 0 L359 66 L358 66 Q334 28 300 8 Q266 -12 216 -12 Q173 -12 138 5 Q103 22 79 53 Q55 84 42 126 Q29 168 29 219 Q29 274 43.5 316.5 Q58 359 83 388.5 Q108 418 142 433 Q176 448 215 448 Z M237 52 Q296 52 329 96.5 Q362 141 362 218 Q362 295 329 339 Q296 383 237 383 Q178 383 144.5 339 Q111 295 111 218 Q111 141 144.5 96.5 Q178 52 237 52 Z " />
<glyph glyph-name="uni0110" unicode="&#x110;" horiz-adv-x="634" d="M282 631 Q356 631 415.5 609.5 Q475 588 517 547.5 Q559 507 581.5 448 Q604 389 604 315 Q604 241 581.5 182.5 Q559 124 517 83.5 Q475 43 415 21.5 Q355 0 281 0 L70 0 L70 293 L6 293 L6 358 L70 358 L70 631 L282 631 Z M280 67 Q396 67 457 131.5 Q518 196 518 316 Q518 436 457 500.5 Q396 565 280 565 L151 565 L150 358 L334 358 L334 293 L150 293 L150 67 L280 67 Z " />
<glyph glyph-name="uni0111" unicode="&#x111;" horiz-adv-x="496" d="M496 551 L496 487 L438 487 L438 0 L359 0 L359 66 L357 66 Q333 28 299.5 8 Q266 -12 216 -12 Q172 -12 137.5 5 Q103 22 79 52.5 Q55 83 42 125.5 Q29 168 29 219 Q29 274 43.5 316.5 Q58 359 83 388 Q108 417 141.5 432 Q175 447 214 447 Q265 447 300.5 426 Q336 405 357 367 L359 367 L359 487 L225 487 L225 551 L359 551 L359 629 L438 629 L438 551 L496 551 Z M237 52 Q295 52 328.5 96 Q362 140 362 217 Q362 295 328.5 339 Q295 383 237 383 Q178 383 144.5 339 Q111 295 111 217 Q111 140 144.5 96 Q178 52 237 52 Z " />
<glyph glyph-name="uni0112" unicode="&#x112;" horiz-adv-x="539" d="M150 685 L412 685 L412 747 L150 747 L150 685 Z M141 66 L141 289 L448 288 L448 354 L141 354 L141 564 L490 564 L490 630 L60 630 L60 0 L501 0 L501 66 L141 66 Z " />
<glyph glyph-name="uni0113" unicode="&#x113;" horiz-adv-x="480" d="M111 577 L373 577 L373 515 L111 515 L111 577 Z M379 138 L451 122 Q429 53 374 20.5 Q319 -12 250 -12 Q139 -12 75 70 Q49 102 38.5 145.5 Q28 189 29 228 Q31 327 90.5 387 Q150 447 250 447 Q295 447 332.5 430.5 Q370 414 396 385 Q422 356 436.5 317.5 Q451 279 451 235 L451 193 L111 193 Q118 129 153.5 90 Q189 51 251 51 Q296 51 329.5 73 Q363 95 379 138 Z M113 247 L368 247 Q364 302 333 343 Q302 384 242 384 Q179 384 149.5 344 Q120 304 113 247 Z " />
<glyph glyph-name="uni0114" unicode="&#x114;" horiz-adv-x="539" d="M342 804 L399 804 Q399 740 368.5 706.5 Q338 673 281 673 Q223 673 192.5 706.5 Q162 740 162 804 L219 804 Q219 769 233 749 Q247 729 281 729 Q314 729 328 749 Q342 769 342 804 Z M141 66 L501 66 L501 0 L60 0 L60 630 L490 630 L490 564 L141 564 L141 354 L448 354 L448 287 L141 288 L141 66 Z " />
<glyph glyph-name="uni0115" unicode="&#x115;" horiz-adv-x="480" d="M359 631 Q359 568 328.5 534.5 Q298 501 241 501 Q183 501 152.5 534.5 Q122 568 122 631 L179 631 Q179 596 193 576.5 Q207 557 241 557 Q274 557 288 576.5 Q302 596 302 631 L359 631 Z M379 138 L451 122 Q429 53 374 20.5 Q319 -12 250 -12 Q139 -12 75 70 Q49 102 38.5 145.5 Q28 189 29 228 Q31 327 90.5 387 Q150 447 250 447 Q295 447 332.5 430.5 Q370 414 396 385 Q422 356 436.5 317.5 Q451 279 451 235 L451 193 L111 193 Q118 129 153.5 90 Q189 51 251 51 Q296 51 329.5 73 Q363 95 379 138 Z M113 247 L368 247 Q364 302 333 343 Q302 384 242 384 Q179 384 149.5 344 Q120 304 113 247 Z " />
<glyph glyph-name="uni0116" unicode="&#x116;" horiz-adv-x="539" d="M232 681 L329 681 L329 779 L232 779 L232 681 Z M141 66 L141 289 L448 288 L448 354 L141 354 L141 564 L490 564 L490 630 L60 630 L60 0 L501 0 L501 66 L141 66 Z " />
<glyph glyph-name="uni0117" unicode="&#x117;" horiz-adv-x="480" d="M192 626 L289 626 L289 528 L192 528 L192 626 Z M379 138 L451 122 Q429 53 374 20.5 Q319 -12 250 -12 Q139 -12 75 70 Q49 102 38.5 145.5 Q28 189 29 228 Q31 327 90.5 387 Q150 447 250 447 Q295 447 332.5 430.5 Q370 414 396 385 Q422 356 436.5 317.5 Q451 279 451 235 L451 193 L111 193 Q118 129 153.5 90 Q189 51 251 51 Q296 51 329.5 73 Q363 95 379 138 Z M113 247 L368 247 Q364 302 333 343 Q302 384 242 384 Q179 384 149.5 344 Q120 304 113 247 Z " />
<glyph glyph-name="uni0118" unicode="&#x118;" horiz-adv-x="539" d="M457 0 Q414 -38 395 -60 Q376 -82 376 -105 Q376 -135 412 -135 Q426 -135 439.5 -126 Q453 -117 465 -111 L465 -165 Q452 -173 434.5 -180 Q417 -187 390 -187 Q357 -187 335.5 -170 Q314 -153 314 -120 Q314 -84 342 -55 Q370 -26 405 0 L60 0 L60 630 L490 630 L490 564 L141 564 L141 354 L448 354 L448 288 L141 288 L141 66 L501 66 L501 0 L457 0 Z " />
<glyph glyph-name="uni0119" unicode="&#x119;" horiz-adv-x="480" d="M451 235 L451 193 L111 193 Q118 129 153.5 90 Q189 51 251 51 Q296 51 329.5 73 Q363 95 379 138 L451 122 Q437 77 405.5 46 Q374 15 331 0 Q304 -10 281 -33 Q279 -35 278 -36 Q277 -37 275 -39 L273 -41 Q251 -67 251 -89 Q251 -119 287 -119 Q301 -119 314.5 -110.5 Q328 -102 340 -96 L340 -149 Q318 -163 299 -167 Q280 -171 254 -171 Q227 -169 207.5 -149 Q188 -129 189 -102 Q190 -76 206 -54 Q222 -32 245 -12 Q138 -11 75 70 Q50 102 39 145.5 Q28 189 29 228 Q31 327 90.5 387 Q150 447 250 447 Q295 447 332.5 430.5 Q370 414 396 385 Q422 356 436.5 317.5 Q451 279 451 235 Z M113 247 L368 247 Q364 302 333 343 Q302 384 242 384 Q181 384 150.5 343.5 Q120 303 113 247 Z " />
<glyph glyph-name="uni011A" unicode="&#x11a;" horiz-adv-x="539" d="M329 677 L409 803 L349 803 L281 729 L213 803 L153 803 L233 677 L329 677 Z M141 66 L141 289 L448 288 L448 354 L141 354 L141 564 L490 564 L490 630 L60 630 L60 0 L501 0 L501 66 L141 66 Z " />
<glyph glyph-name="uni011B" unicode="&#x11b;" horiz-adv-x="480" d="M192 504 L112 630 L172 630 L240 556 L308 630 L368 630 L288 504 L192 504 Z M379 138 L451 122 Q429 53 374 20.5 Q319 -12 250 -12 Q139 -12 75 70 Q49 102 38.5 145.5 Q28 189 29 228 Q31 327 90.5 387 Q150 447 250 447 Q295 447 332.5 430.5 Q370 414 396 385 Q422 356 436.5 317.5 Q451 279 451 235 L451 193 L111 193 Q118 129 153.5 90 Q189 51 251 51 Q296 51 329.5 73 Q363 95 379 138 Z M113 247 L368 247 Q364 302 333 343 Q302 384 242 384 Q179 384 149.5 344 Q120 304 113 247 Z " />
<glyph glyph-name="uni011C" unicode="&#x11c;" horiz-adv-x="680" d="M383 803 L463 677 L403 677 L335 751 L267 677 L207 677 L287 803 L383 803 Z M330 241 L330 310 L622 310 L622 0 L557 0 L554 102 Q553 100 539 82 Q525 64 498 43 Q471 22 432 5 Q393 -12 341 -12 Q271 -12 214 13.5 Q157 39 116.5 83 Q76 127 54 186.5 Q32 246 32 314 Q32 382 54 442 Q76 502 116.5 546.5 Q157 591 214 616.5 Q271 642 341 642 Q445 642 521.5 586 Q598 530 625 429 L557 413 Q536 487 480 530 Q424 573 347 573 Q289 573 246 553 Q203 533 174.5 498 Q146 463 132.5 415.5 Q119 368 119 314 Q119 260 133 213 Q147 166 175 131.5 Q203 97 246 77 Q289 57 347 57 Q388 57 424.5 70 Q461 83 488 107 Q515 131 531.5 165 Q548 199 549 241 L330 241 Z " />
<glyph glyph-name="uni011D" unicode="&#x11d;" horiz-adv-x="476" d="M275 630 L355 504 L295 504 L227 578 L159 504 L99 504 L179 630 L275 630 Z M318 85 Q385 85 422.5 56.5 Q460 28 460 -27 Q460 -100 396 -142 Q332 -184 218 -184 Q121 -184 65.5 -151.5 Q10 -119 10 -62 Q10 -39 18 -22 Q26 -5 37 6.5 Q48 18 58.5 24 Q69 30 73 31 Q52 42 39.5 63.5 Q27 85 27 113 Q27 145 45 169.5 Q63 194 89 200 Q70 219 59 243.5 Q48 268 48 297 Q48 331 62.5 358.5 Q77 386 102 405.5 Q127 425 161 436 Q195 447 234 447 Q311 447 363 409 Q372 423 396 441.5 Q420 460 462 460 L476 388 Q446 388 426 384.5 Q406 381 397 377 Q405 363 412.5 342 Q420 321 420 297 Q420 264 405.5 236.5 Q391 209 366 189.5 Q341 170 307 159 Q273 148 234 148 Q176 148 128 172 Q113 168 102.5 156.5 Q92 145 92 131 Q92 113 106 99 Q120 85 141 85 L318 85 Z M234 393 Q187 393 160 368 Q133 343 133 296 Q133 250 160 225.5 Q187 201 234 201 Q281 201 308 225.5 Q335 250 335 296 Q335 343 308 368 Q281 393 234 393 Z M220 -134 Q289 -134 334 -113.5 Q379 -93 379 -44 Q379 -13 357.5 -0.5 Q336 12 301 12 L171 12 Q139 12 116 -2 Q93 -16 93 -53 Q93 -95 128 -114.5 Q163 -134 220 -134 Z " />
<glyph glyph-name="uni011E" unicode="&#x11e;" horiz-adv-x="680" d="M453 803 Q453 740 422.5 706.5 Q392 673 335 673 Q278 673 247.5 706.5 Q217 740 217 803 L274 803 Q274 768 288 748.5 Q302 729 335 729 Q369 729 383 748.5 Q397 768 397 803 L453 803 Z M330 241 L330 310 L622 310 L622 0 L557 0 L554 102 Q553 100 539 82 Q525 64 498 43 Q471 22 432 5 Q393 -12 341 -12 Q271 -12 214 13.5 Q157 39 116.5 83 Q76 127 54 186.5 Q32 246 32 314 Q32 382 54 442 Q76 502 116.5 546.5 Q157 591 214 616.5 Q271 642 341 642 Q445 642 521.5 586 Q598 530 625 429 L557 413 Q536 487 480 530 Q424 573 347 573 Q289 573 246 553 Q203 533 174.5 498 Q146 463 132.5 415.5 Q119 368 119 314 Q119 260 133 213 Q147 166 175 131.5 Q203 97 246 77 Q289 57 347 57 Q388 57 424.5 70 Q461 83 488 107 Q515 131 531.5 165 Q548 199 549 241 L330 241 Z " />
<glyph glyph-name="uni011F" unicode="&#x11f;" horiz-adv-x="476" d="M347 631 Q347 568 316.5 534.5 Q286 501 229 501 Q171 501 140.5 534.5 Q110 568 110 631 L167 631 Q167 596 181 576.5 Q195 557 229 557 Q262 557 276 576.5 Q290 596 290 631 L347 631 Z M318 85 Q385 85 422.5 56.5 Q460 28 460 -27 Q460 -100 396 -142 Q332 -184 218 -184 Q121 -184 65.5 -151.5 Q10 -119 10 -62 Q10 -39 18 -22 Q26 -5 37 6.5 Q48 18 58.5 24 Q69 30 73 31 Q52 42 39.5 63.5 Q27 85 27 113 Q27 145 45 169.5 Q63 194 89 200 Q70 219 59 243.5 Q48 268 48 297 Q48 331 62.5 358.5 Q77 386 102 405.5 Q127 425 161 436 Q195 447 234 447 Q311 447 363 409 Q372 423 396 441.5 Q420 460 462 460 L476 388 Q446 388 426 384.5 Q406 381 397 377 Q405 363 412.5 342 Q420 321 420 297 Q420 264 405.5 236.5 Q391 209 366 189.5 Q341 170 307 159 Q273 148 234 148 Q176 148 128 172 Q113 168 102.5 156.5 Q92 145 92 131 Q92 113 106 99 Q120 85 141 85 L318 85 Z M234 393 Q187 393 160 368 Q133 343 133 296 Q133 250 160 225.5 Q187 201 234 201 Q281 201 308 225.5 Q335 250 335 296 Q335 343 308 368 Q281 393 234 393 Z M220 -134 Q289 -134 334 -113.5 Q379 -93 379 -44 Q379 -13 357.5 -0.5 Q336 12 301 12 L171 12 Q139 12 116 -2 Q93 -16 93 -53 Q93 -95 128 -114.5 Q163 -134 220 -134 Z " />
<glyph glyph-name="uni0120" unicode="&#x120;" horiz-adv-x="680" d="M280 779 L377 779 L377 681 L280 681 L280 779 Z M330 241 L330 310 L622 310 L622 0 L557 0 L554 102 Q553 100 539 82 Q525 64 498 43 Q471 22 432 5 Q393 -12 341 -12 Q271 -12 214 13.5 Q157 39 116.5 83 Q76 127 54 186.5 Q32 246 32 314 Q32 382 54 442 Q76 502 116.5 546.5 Q157 591 214 616.5 Q271 642 341 642 Q445 642 521.5 586 Q598 530 625 429 L557 413 Q536 487 480 530 Q424 573 347 573 Q289 573 246 553 Q203 533 174.5 498 Q146 463 132.5 415.5 Q119 368 119 314 Q119 260 133 213 Q147 166 175 131.5 Q203 97 246 77 Q289 57 347 57 Q388 57 424.5 70 Q461 83 488 107 Q515 131 531.5 165 Q548 199 549 241 L330 241 Z " />
<glyph glyph-name="uni0121" unicode="&#x121;" horiz-adv-x="479" d="M179 618 L276 618 L276 520 L179 520 L179 618 Z M318 85 Q385 85 422.5 56.5 Q460 28 460 -27 Q460 -100 396 -142 Q332 -184 218 -184 Q121 -184 65.5 -151.5 Q10 -119 10 -62 Q10 -39 18 -22 Q26 -5 37 6.5 Q48 18 58.5 24 Q69 30 73 31 Q52 42 39.5 63.5 Q27 85 27 113 Q27 145 45 169.5 Q63 194 89 200 Q70 219 59 243.5 Q48 268 48 297 Q48 331 62.5 358.5 Q77 386 102 405.5 Q127 425 161 436 Q195 447 234 447 Q311 447 363 409 Q372 423 396 441.5 Q420 460 462 460 L476 388 Q446 388 426 384.5 Q406 381 397 377 Q405 363 412.5 342 Q420 321 420 297 Q420 264 405.5 236.5 Q391 209 366 189.5 Q341 170 307 159 Q273 148 234 148 Q176 148 128 172 Q113 168 102.5 156.5 Q92 145 92 131 Q92 113 106 99 Q120 85 141 85 L318 85 Z M234 393 Q187 393 160 368 Q133 343 133 296 Q133 250 160 225.5 Q187 201 234 201 Q281 201 308 225.5 Q335 250 335 296 Q335 343 308 368 Q281 393 234 393 Z M220 -134 Q289 -134 334 -113.5 Q379 -93 379 -44 Q379 -13 357.5 -0.5 Q336 12 301 12 L171 12 Q139 12 116 -2 Q93 -16 93 -53 Q93 -95 128 -114.5 Q163 -134 220 -134 Z " />
<glyph glyph-name="uni0122" unicode="&#x122;" horiz-adv-x="680" d="M368 -50 L368 -108 Q368 -152 352 -174.5 Q336 -197 289 -197 L289 -160 Q313 -160 323 -149 Q333 -138 333 -115 L289 -115 L289 -50 L368 -50 Z M330 241 L330 310 L622 310 L622 0 L557 0 L554 102 Q553 100 539 82 Q525 64 498 43 Q471 22 432 5 Q393 -12 341 -12 Q271 -12 214 13.5 Q157 39 116.5 83 Q76 127 54 186.5 Q32 246 32 314 Q32 382 54 442 Q76 502 116.5 546.5 Q157 591 214 616.5 Q271 642 341 642 Q445 642 521.5 586 Q598 530 625 429 L557 413 Q536 487 480 530 Q424 573 347 573 Q289 573 246 553 Q203 533 174.5 498 Q146 463 132.5 415.5 Q119 368 119 314 Q119 260 133 213 Q147 166 175 131.5 Q203 97 246 77 Q289 57 347 57 Q388 57 424.5 70 Q461 83 488 107 Q515 131 531.5 165 Q548 199 549 241 L330 241 Z " />
<glyph glyph-name="uni0123" unicode="&#x123;" horiz-adv-x="479" d="M179 520 L179 609 Q179 673 206 697 Q227 718 266 718 Q273 718 276 717 L276 673 Q244 671 233 658 Q222 647 222 618 L276 618 L276 520 L179 520 Z M318 85 Q385 85 422.5 56.5 Q460 28 460 -27 Q460 -100 396 -142 Q332 -184 218 -184 Q121 -184 65.5 -151.5 Q10 -119 10 -62 Q10 -39 18 -22 Q26 -5 37 6.5 Q48 18 58.5 24 Q69 30 73 31 Q52 42 39.5 63.5 Q27 85 27 113 Q27 145 45 169.5 Q63 194 89 200 Q70 219 59 243.5 Q48 268 48 297 Q48 331 62.5 358.5 Q77 386 102 405.5 Q127 425 161 436 Q195 447 234 447 Q311 447 363 409 Q372 423 396 441.5 Q420 460 462 460 L476 388 Q446 388 426 384.5 Q406 381 397 377 Q405 363 412.5 342 Q420 321 420 297 Q420 264 405.5 236.5 Q391 209 366 189.5 Q341 170 307 159 Q273 148 234 148 Q176 148 128 172 Q113 168 102.5 156.5 Q92 145 92 131 Q92 113 106 99 Q120 85 141 85 L318 85 Z M234 393 Q187 393 160 368 Q133 343 133 296 Q133 250 160 225.5 Q187 201 234 201 Q281 201 308 225.5 Q335 250 335 296 Q335 343 308 368 Q281 393 234 393 Z M220 -134 Q289 -134 334 -113.5 Q379 -93 379 -44 Q379 -13 357.5 -0.5 Q336 12 301 12 L171 12 Q139 12 116 -2 Q93 -16 93 -53 Q93 -95 128 -114.5 Q163 -134 220 -134 Z " />
<glyph glyph-name="uni0124" unicode="&#x124;" horiz-adv-x="642" d="M369 803 L449 677 L389 677 L321 751 L253 677 L193 677 L273 803 L369 803 Z M502 630 L502 355 L140 355 L140 630 L60 630 L60 0 L140 0 L140 289 L502 289 L502 0 L582 0 L582 630 L502 630 Z " />
<glyph glyph-name="uni0125" unicode="&#x125;" horiz-adv-x="493" d="M295 803 L375 677 L315 677 L247 751 L179 677 L119 677 L199 803 L295 803 Z M272 447 Q362 447 400 397 Q438 347 438 270 L438 0 L360 0 L360 266 Q360 320 333.5 351.5 Q307 383 255 383 Q207 383 170.5 348.5 Q134 314 134 256 L134 0 L55 0 L55 630 L134 630 L134 354 Q150 394 189 420.5 Q228 447 272 447 Z " />
<glyph glyph-name="uni0126" unicode="&#x126;" horiz-adv-x="673" d="M667 502 L598 502 L598 630 L518 630 L518 502 L156 502 L156 630 L76 630 L76 502 L6 502 L6 433 L76 433 L76 0 L156 1 L156 259 L518 259 L518 0 L598 0 L598 433 L667 433 L667 502 Z M518 325 L156 325 L156 433 L518 433 L518 325 Z " />
<glyph glyph-name="uni0127" unicode="&#x127;" horiz-adv-x="493" d="M272 447 Q362 447 400 397 Q438 347 438 270 L438 0 L359 0 L359 266 Q359 320 333 351.5 Q307 383 255 383 Q207 383 170.5 348.5 Q134 314 134 256 L134 0 L55 0 L55 487 L-2 487 L-2 550 L55 550 L55 630 L134 630 L134 550 L269 550 L269 487 L134 487 L134 354 Q150 394 189 420.5 Q228 447 272 447 Z " />
<glyph glyph-name="uni0128" unicode="&#x128;" horiz-adv-x="233" d="M-33 675 Q-33 731 -12.5 764.5 Q8 798 52 798 Q72 798 88.5 789 Q105 780 119.5 768.5 Q134 757 147.5 748 Q161 739 176 739 Q197 739 204.5 753.5 Q212 768 214 795 L266 795 Q266 739 245 705.5 Q224 672 181 672 Q160 672 143.5 681 Q127 690 112.5 701.5 Q98 713 84.5 722 Q71 731 56 731 Q35 731 27.5 716.5 Q20 702 18 675 L-33 675 Z M157 630 L157 0 L76 0 L76 630 L157 630 Z " />
<glyph glyph-name="uni0129" unicode="&#x129;" horiz-adv-x="231" d="M-34 506 Q-34 562 -13.5 595.5 Q7 629 51 629 Q71 629 87.5 620 Q104 611 118.5 599.5 Q133 588 146.5 579 Q160 570 175 570 Q196 570 203.5 584.5 Q211 599 213 626 L265 626 Q265 570 244 536.5 Q223 503 180 503 Q159 503 142.5 512 Q126 521 111.5 532.5 Q97 544 83.5 553 Q70 562 55 562 Q34 562 26.5 547.5 Q19 533 17 506 L-34 506 Z M155 436 L155 0 L76 0 L76 436 L155 436 Z " />
<glyph glyph-name="uni012A" unicode="&#x12a;" horiz-adv-x="224" d="M-19 747 L243 747 L243 685 L-19 685 L-19 747 Z M151 630 L70 630 L70 0 L151 0 L151 630 Z " />
<glyph glyph-name="uni012B" unicode="&#x12b;" horiz-adv-x="236" d="M157 436 L79 436 L79 0 L157 0 L157 436 Z M-13 577 L249 577 L249 515 L-13 515 L-13 577 Z " />
<glyph glyph-name="uni012C" unicode="&#x12c;" horiz-adv-x="210" d="M223 803 Q223 740 192.5 706.5 Q162 673 105 673 Q48 673 17.5 706.5 Q-13 740 -13 803 L44 803 Q44 768 58 748.5 Q72 729 105 729 Q139 729 153 748.5 Q167 768 167 803 L223 803 Z M144 630 L144 0 L63 0 L63 630 L144 630 Z " />
<glyph glyph-name="uni012D" unicode="&#x12d;" horiz-adv-x="198" d="M139 0 L60 0 L60 436 L139 436 L139 0 Z M161 631 L217 631 Q217 568 186.5 534.5 Q156 501 99 501 Q42 501 11.5 534.5 Q-19 568 -19 631 L38 631 Q38 596 52 576.5 Q66 557 99 557 Q133 557 147 576.5 Q161 596 161 631 Z " />
<glyph glyph-name="uni012E" unicode="&#x12e;" horiz-adv-x="196" d="M136 -111 L136 -165 Q123 -173 105.5 -180 Q88 -187 61 -187 Q28 -187 6.5 -170 Q-15 -153 -15 -120 Q-15 -84 13 -55 Q41 -26 76 0 L47 0 L47 630 L128 630 L128 0 Q85 -38 66 -60 Q47 -82 47 -105 Q47 -135 83 -135 Q97 -135 110.5 -126 Q124 -117 136 -111 Z " />
<glyph glyph-name="uni012F" unicode="&#x12f;" horiz-adv-x="178" d="M103 514 L18 514 L18 596 L103 596 L103 514 Z M123 -96 L123 -150 Q110 -158 93 -165 Q76 -172 49 -172 Q16 -172 -5 -155.5 Q-26 -139 -27 -105 Q-27 -75 -6 -49 Q15 -23 44 0 L21 0 L21 436 L100 436 L100 0 Q66 -30 50 -50 Q34 -70 34 -90 Q34 -120 70 -120 Q84 -120 97.5 -111 Q111 -102 123 -96 Z " />
<glyph glyph-name="uni0130" unicode="&#x130;" horiz-adv-x="217" d="M60 779 L157 779 L157 681 L60 681 L60 779 Z M148 630 L67 630 L67 0 L148 0 L148 630 Z " />
<glyph glyph-name="uni0131" unicode="&#x131;" horiz-adv-x="193" d="M60 437 L60 0 L133 0 L133 437 L60 437 Z " />
<glyph glyph-name="uni0132" unicode="&#x132;" horiz-adv-x="700" d="M141 1 L60 1 L60 631 L141 631 L141 1 Z M569 630 L650 630 L650 225 Q650 -12 423 -12 Q326 -12 273.5 42.5 Q221 97 218 189 L294 208 Q296 136 325.5 96 Q355 56 426 57 Q508 58 538.5 98.5 Q569 139 570 223 L569 630 Z " />
<glyph glyph-name="uni0133" unicode="&#x133;" horiz-adv-x="359" d="M138 436 L138 0 L59 0 L59 436 L138 436 Z M55 596 L141 596 L141 514 L55 514 L55 596 Z M218 596 L304 596 L304 514 L218 514 L218 596 Z M222 436 L301 436 L301 -74 Q299 -103 286 -124 Q273 -145 254 -158.5 Q235 -172 211.5 -178 Q188 -184 165 -184 Q158 -184 152 -183.5 Q146 -183 140 -182 L140 -118 Q148 -119 156.5 -119.5 Q165 -120 173 -120 Q198 -118 210 -96 Q222 -74 222 -40 L222 436 Z " />
<glyph glyph-name="uni0134" unicode="&#x134;" horiz-adv-x="498" d="M451 803 L531 677 L471 677 L403 751 L335 677 L275 677 L355 803 L451 803 Z M363 630 L444 630 L444 225 Q444 -12 218 -12 Q121 -12 68 42.5 Q15 97 12 189 L88 208 Q90 136 119.5 96 Q149 56 220 57 Q302 58 332.5 98.5 Q363 139 364 223 L363 630 Z " />
<glyph glyph-name="uni0135" unicode="&#x135;" horiz-adv-x="195" d="M144 630 L224 504 L164 504 L96 578 L28 504 L-32 504 L48 630 L144 630 Z M134 -59 Q134 -119 99.5 -151.5 Q65 -184 8 -184 L7 -184 Q-10 -184 -28 -179.5 Q-46 -175 -54 -173 L-60 -171 L-54 -108 L-45 -111 Q-36 -115 -23 -118 Q-10 -121 3 -121 Q28 -121 42 -107 Q55 -92 55 -64 L55 436 L134 436 L134 -59 Z " />
<glyph glyph-name="uni0136" unicode="&#x136;" horiz-adv-x="566" d="M329 -50 L329 -108 Q329 -153 312.5 -175 Q296 -197 249 -197 L249 -160 Q275 -160 285 -148 Q294 -137 293 -115 L249 -115 L249 -50 L329 -50 Z M266 374 L568 0 L468 0 L210 320 L141 253 L141 0 L60 0 L60 630 L141 630 L141 357 L424 630 L531 630 L266 374 Z " />
<glyph glyph-name="uni0137" unicode="&#x137;" horiz-adv-x="458" d="M279 -49 L279 -108 Q279 -153 262.5 -174.5 Q246 -196 199 -196 L199 -160 Q223 -158 233.5 -149 Q244 -140 244 -115 L199 -115 L199 -49 L279 -49 Z M439 436 L244 252 L448 0 L352 0 L190 201 L134 149 L134 0 L55 0 L55 630 L134 630 L134 242 L340 436 L439 436 Z " />
<glyph glyph-name="uni0138" unicode="&#x138;" horiz-adv-x="458" d="M439 436 L340 436 L134 242 L134 436 L55 436 L55 0 L134 0 L134 149 L190 201 L352 0 L448 0 L244 252 L439 436 Z " />
<glyph glyph-name="uni0139" unicode="&#x139;" horiz-adv-x="509" d="M65 677 L119 803 L217 803 L120 677 L65 677 Z M141 66 L141 630 L60 630 L60 0 L484 0 L484 66 L141 66 Z " />
<glyph glyph-name="uni013A" unicode="&#x13a;" horiz-adv-x="191" d="M133 0 L55 0 L55 630 L134 630 L133 0 Z M121 677 L218 803 L120 803 L66 677 L121 677 Z " />
<glyph glyph-name="uni013B" unicode="&#x13b;" horiz-adv-x="509" d="M312 -50 L312 -108 Q312 -153 295.5 -175 Q279 -197 232 -197 L232 -160 Q258 -160 268 -148 Q277 -137 276 -115 L232 -115 L232 -50 L312 -50 Z M141 66 L484 66 L484 0 L60 0 L60 630 L141 630 L141 66 Z " />
<glyph glyph-name="uni013C" unicode="&#x13c;" horiz-adv-x="190" d="M135 -50 L135 -108 Q135 -153 119 -175 Q103 -197 55 -197 L55 -161 Q82 -159 91 -148 Q100 -137 99 -115 L55 -115 L55 -50 L135 -50 Z M134 630 L134 0 L56 0 L56 630 L134 630 Z " />
<glyph glyph-name="uni013D" unicode="&#x13d;" horiz-adv-x="509" d="M325 504 L383 630 L285 630 L270 504 L325 504 Z M141 66 L141 630 L60 630 L60 0 L484 0 L484 66 L141 66 Z " />
<glyph glyph-name="uni013E" unicode="&#x13e;" horiz-adv-x="257" d="M171 504 L186 630 L284 630 L226 504 L171 504 Z M134 630 L55 630 L55 0 L133 0 L134 630 Z " />
<glyph glyph-name="uni013F" unicode="&#x13f;" horiz-adv-x="509" d="M324 381 L421 381 L421 284 L324 284 L324 381 Z M141 66 L141 630 L60 630 L60 0 L484 0 L484 66 L141 66 Z " />
<glyph glyph-name="uni0140" unicode="&#x140;" horiz-adv-x="322" d="M134 630 L55 630 L55 0 L133 0 L134 630 Z M205 363 L302 363 L302 265 L205 265 L205 363 Z " />
<glyph glyph-name="uni0141" unicode="&#x141;" horiz-adv-x="510" d="M151 66 L151 264 L335 342 L335 409 L151 332 L151 630 L70 630 L70 297 L3 269 L3 201 L70 230 L70 0 L495 0 L495 66 L151 66 Z " />
<glyph glyph-name="uni0142" unicode="&#x142;" horiz-adv-x="238" d="M228 432 L158 393 L158 630 L79 630 L79 348 L10 309 L10 245 L79 284 L79 0 L158 0 L158 329 L228 368 L228 432 Z " />
<glyph glyph-name="uni0143" unicode="&#x143;" horiz-adv-x="627" d="M292 677 L346 803 L444 803 L347 677 L292 677 Z M486 79 L486 630 L567 630 L567 0 L441 0 L145 551 L141 551 L141 0 L60 0 L60 630 L186 630 L482 79 L486 79 Z " />
<glyph glyph-name="uni0144" unicode="&#x144;" horiz-adv-x="489" d="M272 504 L217 504 L271 630 L369 630 L272 504 Z M270 447 Q353 447 393.5 399 Q434 351 434 273 L434 0 L356 0 L356 267 Q356 321 330.5 352 Q305 383 254 383 Q206 383 170 349 Q134 315 134 257 L134 0 L55 0 L55 436 L119 436 L134 357 Q150 396 188.5 421.5 Q227 447 270 447 Z " />
<glyph glyph-name="uni0145" unicode="&#x145;" horiz-adv-x="627" d="M273 -50 L353 -50 L353 -108 Q353 -153 336.5 -175 Q320 -197 273 -197 L273 -160 Q318 -160 318 -115 L273 -115 L273 -50 Z M486 79 L486 630 L567 630 L567 0 L441 0 L145 551 L141 551 L141 0 L60 0 L60 630 L186 630 L482 79 L486 79 Z " />
<glyph glyph-name="uni0146" unicode="&#x146;" horiz-adv-x="489" d="M205 -50 L285 -50 L285 -108 Q285 -153 268.5 -175 Q252 -197 205 -197 L205 -160 Q231 -160 240 -149.5 Q249 -139 249 -115 L205 -115 L205 -50 Z M270 447 Q353 447 393.5 399 Q434 351 434 273 L434 0 L356 0 L356 267 Q356 321 330.5 352 Q305 383 254 383 Q206 383 170 349 Q134 315 134 257 L134 0 L55 0 L55 436 L119 436 L134 357 Q150 396 188.5 421.5 Q227 447 270 447 Z " />
<glyph glyph-name="uni0147" unicode="&#x147;" horiz-adv-x="627" d="M265 803 L186 677 L245 677 L313 751 L381 677 L441 677 L361 803 L265 803 Z M486 79 L486 630 L567 630 L567 0 L441 0 L145 551 L141 551 L141 0 L60 0 L60 630 L186 630 L482 79 L486 79 Z " />
<glyph glyph-name="uni0148" unicode="&#x148;" horiz-adv-x="489" d="M293 504 L197 504 L117 630 L177 630 L245 556 L313 630 L373 630 L293 504 Z M270 447 Q353 447 393.5 399 Q434 351 434 273 L434 0 L356 0 L356 267 Q356 321 330.5 352 Q305 383 254 383 Q206 383 170 349 Q134 315 134 257 L134 0 L55 0 L55 436 L119 436 L134 357 Q150 396 188.5 421.5 Q227 447 270 447 Z " />
<glyph glyph-name="uni014A" unicode="&#x14a;" horiz-adv-x="622" d="M486 630 L567 630 L567 -28 Q567 -111 529 -157 Q491 -203 406 -203 Q347 -203 302 -174.5 Q257 -146 236 -104 L294 -61 Q313 -88 337.5 -109 Q362 -130 403 -130 Q452 -130 468.5 -101 Q485 -72 485 1 L145 551 L141 551 L141 0 L60 0 L60 630 L186 630 L482 158 L486 158 L486 630 Z " />
<glyph glyph-name="uni014B" unicode="&#x14b;" horiz-adv-x="494" d="M439 273 L439 -86 Q438 -115 425 -135.5 Q412 -156 393 -169.5 Q374 -183 351 -189.5 Q328 -196 305 -196 Q298 -196 291.5 -196 Q285 -196 279 -194 L279 -120 Q287 -121 295 -121.5 Q303 -122 311 -122 Q337 -120 349 -97.5 Q361 -75 360 -41 L362 266 Q362 320 336 351.5 Q310 383 259 383 Q211 383 175 348.5 Q139 314 139 256 L139 0 L60 0 L60 436 L124 436 L139 357 Q155 396 194 422 Q233 448 275 448 Q359 448 399 399.5 Q439 351 439 273 Z " />
<glyph glyph-name="uni014C" unicode="&#x14c;" horiz-adv-x="668" d="M203 739 L465 739 L465 677 L203 677 L203 739 Z M334 57 Q436 57 494 126 Q552 195 552 315 Q552 435 494 504 Q436 573 334 573 Q231 573 173.5 504 Q116 435 116 315 Q116 195 173.5 126 Q231 57 334 57 Z M334 642 Q398 642 453 618.5 Q508 595 549 552 Q590 509 613.5 448.5 Q637 388 637 314 Q637 241 613.5 181 Q590 121 549 78 Q508 35 453 11.5 Q398 -12 334 -12 Q270 -12 215 11.5 Q160 35 119 78 Q78 121 54.5 181 Q31 241 31 314 Q31 388 54.5 448.5 Q78 509 119 552 Q160 595 215 618.5 Q270 642 334 642 Z " />
<glyph glyph-name="uni014D" unicode="&#x14d;" horiz-adv-x="496" d="M117 577 L379 577 L379 515 L117 515 L117 577 Z M248 447 Q297 447 337.5 429.5 Q378 412 406.5 381 Q435 350 451 308 Q467 266 467 217 Q467 168 451 126.5 Q435 85 406.5 54 Q378 23 337.5 5.5 Q297 -12 248 -12 Q199 -12 158.5 5.5 Q118 23 89.5 54 Q61 85 45 126.5 Q29 168 29 217 Q29 266 45 308 Q61 350 89.5 381 Q118 412 158.5 429.5 Q199 447 248 447 Z M248 52 Q312 52 348.5 96 Q385 140 385 218 Q385 295 348.5 339.5 Q312 384 248 384 Q184 384 147.5 339.5 Q111 295 111 218 Q111 140 147.5 96 Q184 52 248 52 Z " />
<glyph glyph-name="uni014E" unicode="&#x14e;" horiz-adv-x="668" d="M452 803 Q452 740 421.5 706.5 Q391 673 334 673 Q277 673 246.5 706.5 Q216 740 216 803 L272 803 Q272 768 286 748.5 Q300 729 334 729 Q368 729 382 748.5 Q396 768 396 803 L452 803 Z M334 57 Q436 57 494 126 Q552 195 552 315 Q552 435 494 504 Q436 573 334 573 Q231 573 173.5 504 Q116 435 116 315 Q116 195 173.5 126 Q231 57 334 57 Z M334 642 Q398 642 453 618.5 Q508 595 549 552 Q590 509 613.5 448.5 Q637 388 637 314 Q637 241 613.5 181 Q590 121 549 78 Q508 35 453 11.5 Q398 -12 334 -12 Q270 -12 215 11.5 Q160 35 119 78 Q78 121 54.5 181 Q31 241 31 314 Q31 388 54.5 448.5 Q78 509 119 552 Q160 595 215 618.5 Q270 642 334 642 Z " />
<glyph glyph-name="uni014F" unicode="&#x14f;" horiz-adv-x="496" d="M366 631 Q366 568 335.5 534.5 Q305 501 248 501 Q191 501 160.5 534.5 Q130 568 130 631 L186 631 Q186 596 200 576.5 Q214 557 248 557 Q281 557 295 576.5 Q309 596 309 631 L366 631 Z M248 447 Q297 447 337.5 429.5 Q378 412 406.5 381 Q435 350 451 308 Q467 266 467 217 Q467 168 451 126.5 Q435 85 406.5 54 Q378 23 337.5 5.5 Q297 -12 248 -12 Q199 -12 158.5 5.5 Q118 23 89.5 54 Q61 85 45 126.5 Q29 168 29 217 Q29 266 45 308 Q61 350 89.5 381 Q118 412 158.5 429.5 Q199 447 248 447 Z M248 52 Q312 52 348.5 96 Q385 140 385 218 Q385 295 348.5 339.5 Q312 384 248 384 Q184 384 147.5 339.5 Q111 295 111 218 Q111 140 147.5 96 Q184 52 248 52 Z " />
<glyph glyph-name="uni0150" unicode="&#x150;" horiz-adv-x="668" d="M388 803 L291 677 L236 677 L290 803 L388 803 Z M525 803 L428 677 L373 677 L427 803 L525 803 Z M334 57 Q436 57 494 126 Q552 195 552 315 Q552 435 494 504 Q436 573 334 573 Q231 573 173.5 504 Q116 435 116 315 Q116 195 173.5 126 Q231 57 334 57 Z M334 642 Q398 642 453 618.5 Q508 595 549 552 Q590 509 613.5 448.5 Q637 388 637 314 Q637 241 613.5 181 Q590 121 549 78 Q508 35 453 11.5 Q398 -12 334 -12 Q270 -12 215 11.5 Q160 35 119 78 Q78 121 54.5 181 Q31 241 31 314 Q31 388 54.5 448.5 Q78 509 119 552 Q160 595 215 618.5 Q270 642 334 642 Z " />
<glyph glyph-name="uni0151" unicode="&#x151;" horiz-adv-x="496" d="M298 630 L201 504 L146 504 L200 630 L298 630 Z M435 630 L338 504 L283 504 L337 630 L435 630 Z M248 447 Q297 447 337.5 429.5 Q378 412 406.5 381 Q435 350 451 308 Q467 266 467 217 Q467 168 451 126.5 Q435 85 406.5 54 Q378 23 337.5 5.5 Q297 -12 248 -12 Q199 -12 158.5 5.5 Q118 23 89.5 54 Q61 85 45 126.5 Q29 168 29 217 Q29 266 45 308 Q61 350 89.5 381 Q118 412 158.5 429.5 Q199 447 248 447 Z M248 52 Q312 52 348.5 96 Q385 140 385 218 Q385 295 348.5 339.5 Q312 384 248 384 Q184 384 147.5 339.5 Q111 295 111 218 Q111 140 147.5 96 Q184 52 248 52 Z " />
<glyph glyph-name="uni0152" unicode="&#x152;" horiz-adv-x="964" d="M926 66 L926 0 L354 0 Q280 0 220 21.5 Q160 43 118 83.5 Q76 124 53.5 182.5 Q31 241 31 315 Q31 389 53.5 447.5 Q76 506 118 546.5 Q160 587 220 608.5 Q280 630 354 630 L915 630 L915 564 L566 564 L566 354 L873 354 L873 288 L566 288 L566 66 L926 66 Z M356 66 L485 66 L485 564 L356 564 Q240 564 179 499.5 Q118 435 118 315 Q118 195 179 130.5 Q240 66 356 66 Z " />
<glyph glyph-name="uni0153" unicode="&#x153;" horiz-adv-x="837" d="M808 235 L808 193 L468 193 Q475 129 510.5 90 Q546 51 608 51 Q653 51 686.5 73 Q720 95 736 138 L808 122 Q786 53 731 20.5 Q676 -12 607 -12 Q497 -12 432 70 Q428 76 426 78 Q397 36 351.5 12 Q306 -12 248 -12 Q199 -12 158.5 5.5 Q118 23 89.5 54 Q61 85 45 126.5 Q29 168 29 217 Q29 266 45 308 Q61 350 89.5 381 Q118 412 158.5 429.5 Q199 447 248 447 Q306 447 351 423.5 Q396 400 425 358 Q459 407 503.5 427 Q548 447 607 447 Q652 447 689.5 430.5 Q727 414 753 385 Q779 356 793.5 317.5 Q808 279 808 235 Z M248 52 Q311 52 348 96.5 Q385 141 385 218 Q385 296 348 340 Q311 384 248 384 Q184 384 147.5 340 Q111 296 111 218 Q111 141 147.5 96.5 Q184 52 248 52 Z M470 247 L725 247 Q720 303 689.5 343.5 Q659 384 598 384 Q536 384 506 343.5 Q476 303 470 247 Z " />
<glyph glyph-name="uni0154" unicode="&#x154;" horiz-adv-x="583" d="M262 677 L316 803 L414 803 L317 677 L262 677 Z M531 31 Q531 12 545 0 L460 0 Q450 12 450 32 L450 150 Q450 219 415.5 246 Q381 273 299 273 L141 273 L141 0 L60 0 L60 630 L326 630 Q366 630 405.5 620.5 Q445 611 477 590 Q509 569 528.5 534 Q548 499 548 448 Q548 409 535.5 382.5 Q523 356 505 339.5 Q487 323 467.5 314.5 Q448 306 434 303 Q487 289 509 253 Q531 217 531 146 L531 31 Z M333 333 Q395 333 428 362.5 Q461 392 461 448 Q461 509 426 537 Q391 565 333 565 L141 564 L141 333 L333 333 Z " />
<glyph glyph-name="uni0155" unicode="&#x155;" horiz-adv-x="300" d="M122 504 L176 630 L274 630 L177 504 L122 504 Z M295 437 L295 366 Q279 369 263 369 Q205 369 168.5 331 Q132 293 134 220 L134 0 L55 0 L55 436 L117 436 L131 368 L133 368 Q176 440 263 440 Q271 440 279.5 439.5 Q288 439 295 437 Z " />
<glyph glyph-name="uni0156" unicode="&#x156;" horiz-adv-x="583" d="M288 -50 L288 -108 Q288 -153 271.5 -175 Q255 -197 208 -197 L208 -160 Q234 -160 244 -148 Q253 -137 252 -115 L208 -115 L208 -50 L288 -50 Z M531 31 Q531 12 545 0 L460 0 Q450 12 450 32 L450 150 Q450 219 415.5 246 Q381 273 299 273 L141 273 L141 0 L60 0 L60 630 L326 630 Q366 630 405.5 620.5 Q445 611 477 590 Q509 569 528.5 534 Q548 499 548 448 Q548 409 535.5 382.5 Q523 356 505 339.5 Q487 323 467.5 314.5 Q448 306 434 303 Q487 289 509 253 Q531 217 531 146 L531 31 Z M333 333 Q395 333 428 362.5 Q461 392 461 448 Q461 509 426 537 Q391 565 333 565 L141 564 L141 333 L333 333 Z " />
<glyph glyph-name="uni0157" unicode="&#x157;" horiz-adv-x="283" d="M136 -50 L136 -109 Q136 -154 120.5 -175.5 Q105 -197 57 -197 L57 -161 Q69 -160 78 -158 Q87 -156 92 -149 Q101 -140 101 -116 L57 -116 L57 -50 L136 -50 Z M295 437 L295 366 Q279 369 263 369 Q205 369 168.5 331 Q132 293 134 220 L134 0 L55 0 L55 436 L117 436 L131 368 L133 368 Q176 440 263 440 Q271 440 279.5 439.5 Q288 439 295 437 Z " />
<glyph glyph-name="uni0158" unicode="&#x158;" horiz-adv-x="583" d="M256 677 L176 803 L236 803 L304 729 L372 803 L432 803 L352 677 L256 677 Z M531 31 Q531 12 545 0 L460 0 Q450 12 450 32 L450 150 Q450 219 415.5 246 Q381 273 299 273 L141 273 L141 0 L60 0 L60 630 L326 630 Q366 630 405.5 620.5 Q445 611 477 590 Q509 569 528.5 534 Q548 499 548 448 Q548 409 535.5 382.5 Q523 356 505 339.5 Q487 323 467.5 314.5 Q448 306 434 303 Q487 289 509 253 Q531 217 531 146 L531 31 Z M333 333 Q395 333 428 362.5 Q461 392 461 448 Q461 509 426 537 Q391 565 333 565 L141 564 L141 333 L333 333 Z " />
<glyph glyph-name="uni0159" unicode="&#x159;" horiz-adv-x="316" d="M135 504 L55 630 L115 630 L183 556 L251 630 L311 630 L231 504 L135 504 Z M311 437 L311 366 Q295 369 278 369 Q220 369 184 331.5 Q148 294 150 220 L150 0 L71 0 L71 436 L133 436 L147 368 L148 368 Q192 440 279 440 Q286 440 294.5 439.5 Q303 439 311 437 Z " />
<glyph glyph-name="uni015A" unicode="&#x15a;" horiz-adv-x="575" d="M314 677 L259 677 L313 803 L411 803 L314 677 Z M360 346 Q403 338 436.5 326 Q470 314 493 293.5 Q516 273 528 242.5 Q540 212 540 167 Q540 84 475 36 Q410 -12 297 -12 Q250 -12 204 0 Q158 12 120 36.5 Q82 61 56 98 Q30 135 22 186 L95 203 Q100 175 116 148 Q132 121 159 100 Q186 79 222 66.5 Q258 54 303 54 Q373 54 417.5 86 Q462 118 462 163 Q462 208 431.5 233 Q401 258 334 270 L209 293 Q124 309 82 352 Q40 395 40 461 Q40 546 105.5 594 Q171 642 280 642 Q324 642 363 633 Q402 624 434 604 Q466 584 489.5 551.5 Q513 519 524 472 L451 455 Q437 518 393.5 547 Q350 576 274 576 Q201 576 159.5 546 Q118 516 118 466 Q118 440 132.5 422.5 Q147 405 167.5 394 Q188 383 209.5 377 Q231 371 246 368 L360 346 Z " />
<glyph glyph-name="uni015B" unicode="&#x15b;" horiz-adv-x="425" d="M194 504 L248 630 L346 630 L249 504 L194 504 Z M267 247 Q327 235 361.5 209 Q396 183 396 118 Q396 84 381.5 59 Q367 34 343 18.5 Q319 3 288 -4.5 Q257 -12 223 -12 Q187 -12 154.5 -3 Q122 6 96 24 Q70 42 52.5 68.5 Q35 95 29 129 L95 143 Q104 97 143 72 Q182 47 227 47 Q261 47 292.5 64 Q324 81 325 115 Q325 146 304.5 159 Q284 172 247 179 L162 195 Q109 205 75 234 Q41 263 41 317 Q41 353 56.5 377.5 Q72 402 96 417.5 Q120 433 150.5 440 Q181 447 212 447 Q356 447 385 326 L319 311 Q302 388 208 388 Q192 388 175 384.5 Q158 381 144 373 Q130 365 121 352 Q112 339 112 320 Q112 278 190 261 L267 247 Z " />
<glyph glyph-name="uni015C" unicode="&#x15c;" horiz-adv-x="575" d="M330 803 L410 677 L350 677 L282 751 L214 677 L154 677 L234 803 L330 803 Z M360 346 Q403 338 436.5 326 Q470 314 493 293.5 Q516 273 528 242.5 Q540 212 540 167 Q540 84 475 36 Q410 -12 297 -12 Q250 -12 204 0 Q158 12 120 36.5 Q82 61 56 98 Q30 135 22 186 L95 203 Q100 175 116 148 Q132 121 159 100 Q186 79 222 66.5 Q258 54 303 54 Q373 54 417.5 86 Q462 118 462 163 Q462 208 431.5 233 Q401 258 334 270 L209 293 Q124 309 82 352 Q40 395 40 461 Q40 546 105.5 594 Q171 642 280 642 Q324 642 363 633 Q402 624 434 604 Q466 584 489.5 551.5 Q513 519 524 472 L451 455 Q437 518 393.5 547 Q350 576 274 576 Q201 576 159.5 546 Q118 516 118 466 Q118 440 132.5 422.5 Q147 405 167.5 394 Q188 383 209.5 377 Q231 371 246 368 L360 346 Z " />
<glyph glyph-name="uni015D" unicode="&#x15d;" horiz-adv-x="425" d="M259 630 L339 504 L279 504 L211 578 L143 504 L83 504 L163 630 L259 630 Z M267 247 Q327 235 361.5 209 Q396 183 396 118 Q396 84 381.5 59 Q367 34 343 18.5 Q319 3 288 -4.5 Q257 -12 223 -12 Q187 -12 154.5 -3 Q122 6 96 24 Q70 42 52.5 68.5 Q35 95 29 129 L95 143 Q104 97 143 72 Q182 47 227 47 Q261 47 292.5 64 Q324 81 325 115 Q325 146 304.5 159 Q284 172 247 179 L162 195 Q109 205 75 234 Q41 263 41 317 Q41 353 56.5 377.5 Q72 402 96 417.5 Q120 433 150.5 440 Q181 447 212 447 Q356 447 385 326 L319 311 Q302 388 208 388 Q192 388 175 384.5 Q158 381 144 373 Q130 365 121 352 Q112 339 112 320 Q112 278 190 261 L267 247 Z " />
<glyph glyph-name="uni015E" unicode="&#x15e;" horiz-adv-x="575" d="M540 168 Q540 86 477 38 Q414 -10 305 -12 L278 -50 Q294 -45 317 -45 Q348 -45 370 -59.5 Q392 -74 392 -106 Q392 -126 382.5 -140 Q373 -154 357.5 -163 Q342 -172 321.5 -176 Q301 -180 280 -180 Q244 -180 215 -168 Q186 -156 170 -142 L187 -110 Q203 -122 226.5 -132 Q250 -142 277 -142 Q300 -142 313.5 -135 Q327 -128 327 -112 Q327 -95 315.5 -88 Q304 -81 288 -81 Q265 -81 242 -91 L222 -80 L269 -11 Q226 -8 184.5 5.5 Q143 19 109 44 Q75 69 52 104.5 Q29 140 22 186 L95 203 Q100 175 116 148 Q132 121 159 100 Q186 79 222 66.5 Q258 54 303 54 Q373 54 417.5 86 Q462 118 462 163 Q462 208 431.5 233 Q401 258 334 270 L209 293 Q124 309 81.5 352 Q39 395 39 462 Q39 504 56.5 537 Q74 570 105.5 593.5 Q137 617 181.5 629.5 Q226 642 280 642 Q324 642 363 633 Q402 624 434 604 Q466 584 489.5 551.5 Q513 519 524 472 L451 455 Q437 518 393.5 547 Q350 576 274 576 Q201 576 159.5 546 Q118 516 118 466 Q118 440 132.5 422.5 Q147 405 167.5 394 Q188 383 209.5 377 Q231 371 246 368 L360 346 Q403 338 436.5 326 Q470 314 493 293.5 Q516 273 528 243 Q540 213 540 168 Z " />
<glyph glyph-name="uni015F" unicode="&#x15f;" horiz-adv-x="425" d="M396 118 Q396 85 382.5 61.5 Q369 38 347 22 Q325 6 296 -2 Q267 -10 235 -11 Q233 -16 228.5 -22.5 Q224 -29 220 -35 Q215 -42 210 -50 Q230 -44 248 -44 Q280 -44 302 -59.5 Q324 -75 324 -107 Q324 -148 289.5 -164 Q255 -180 212 -180 Q176 -180 147 -168 Q118 -156 102 -142 L119 -110 Q135 -122 158.5 -132 Q182 -142 209 -142 Q232 -142 245.5 -135 Q259 -128 259 -112 Q259 -95 247.5 -87.5 Q236 -80 220 -80 Q196 -80 174 -91 L154 -80 L200 -11 Q136 -6 88 30 Q40 66 29 129 L95 143 Q104 97 143 72 Q182 47 227 47 Q261 47 292.5 64 Q324 81 325 115 Q325 146 304.5 159 Q284 172 247 179 L162 195 Q109 205 75 234 Q41 263 41 317 Q41 353 56.5 377.5 Q72 402 96 417.5 Q120 433 150.5 440 Q181 447 212 447 Q356 447 385 326 L319 311 Q302 388 208 388 Q192 388 175 384.5 Q158 381 144 373.5 Q130 366 121 353 Q112 340 112 320 Q112 278 190 261 L267 247 Q327 235 361.5 209 Q396 183 396 118 Z " />
<glyph glyph-name="uni0160" unicode="&#x160;" horiz-adv-x="575" d="M234 677 L154 803 L214 803 L282 729 L350 803 L410 803 L330 677 L234 677 Z M360 346 Q403 338 436.5 326 Q470 314 493 293.5 Q516 273 528 242.5 Q540 212 540 167 Q540 84 475 36 Q410 -12 297 -12 Q250 -12 204 0 Q158 12 120 36.5 Q82 61 56 98 Q30 135 22 186 L95 203 Q100 175 116 148 Q132 121 159 100 Q186 79 222 66.5 Q258 54 303 54 Q373 54 417.5 86 Q462 118 462 163 Q462 208 431.5 233 Q401 258 334 270 L209 293 Q124 309 82 352 Q40 395 40 461 Q40 546 105.5 594 Q171 642 280 642 Q324 642 363 633 Q402 624 434 604 Q466 584 489.5 551.5 Q513 519 524 472 L451 455 Q437 518 393.5 547 Q350 576 274 576 Q201 576 159.5 546 Q118 516 118 466 Q118 440 132.5 422.5 Q147 405 167.5 394 Q188 383 209.5 377 Q231 371 246 368 L360 346 Z " />
<glyph glyph-name="uni0161" unicode="&#x161;" horiz-adv-x="425" d="M176 504 L96 630 L156 630 L224 556 L292 630 L352 630 L272 504 L176 504 Z M267 247 Q327 235 361.5 209 Q396 183 396 118 Q396 84 381.5 59 Q367 34 343 18.5 Q319 3 288 -4.5 Q257 -12 223 -12 Q187 -12 154.5 -3 Q122 6 96 24 Q70 42 52.5 68.5 Q35 95 29 129 L95 143 Q104 97 143 72 Q182 47 227 47 Q261 47 292.5 64 Q324 81 325 115 Q325 146 304.5 159 Q284 172 247 179 L162 195 Q109 205 75 234 Q41 263 41 317 Q41 353 56.5 377.5 Q72 402 96 417.5 Q120 433 150.5 440 Q181 447 212 447 Q356 447 385 326 L319 311 Q302 388 208 388 Q192 388 175 384.5 Q158 381 144 373 Q130 365 121 352 Q112 339 112 320 Q112 278 190 261 L267 247 Z " />
<glyph glyph-name="uni0162" unicode="&#x162;" horiz-adv-x="573" d="M326 -50 L326 -108 Q326 -153 309.5 -175 Q293 -197 246 -197 L246 -160 Q271 -160 281 -148 Q290 -139 290 -115 L246 -115 L246 -50 L326 -50 Z M20 630 L553 630 L553 564 L327 564 L326 0 L246 0 L246 564 L20 564 L20 630 Z " />
<glyph glyph-name="uni0163" unicode="&#x163;" horiz-adv-x="322" d="M254 -50 L254 -108 Q254 -153 238 -175 Q222 -197 174 -197 L174 -161 Q199 -159 209 -150 Q219 -141 219 -115 L174 -115 L174 -50 L254 -50 Z M185 379 L185 108 Q185 80 198 65 Q212 51 237 51 Q250 51 263 54 Q276 57 285 61 L294 64 L300 1 L294 -1 Q286 -3 268 -7.5 Q250 -12 233 -12 L232 -12 Q172 -12 139 22 Q106 56 106 113 L106 379 L6 379 L6 435 L16 435 Q51 435 71 442 Q91 449 100.5 464 Q110 479 112 503 Q114 527 114 561 L114 571 L184 571 Q186 536 184.5 510.5 Q183 485 180 469 Q177 449 172 435 L307 435 L307 379 L185 379 Z " />
<glyph glyph-name="uni0164" unicode="&#x164;" horiz-adv-x="573" d="M238 677 L158 803 L218 803 L286 729 L354 803 L414 803 L334 677 L238 677 Z M20 630 L20 564 L246 564 L246 0 L326 0 L326 564 L553 564 L553 630 L20 630 Z " />
<glyph glyph-name="uni0165" unicode="&#x165;" horiz-adv-x="361" d="M233 495 L248 621 L346 621 L288 495 L233 495 Z M185 379 L185 108 Q185 80 198 65 Q212 51 237 51 Q250 51 263 54 Q276 57 285 61 L294 64 L300 1 L294 -1 Q286 -3 268 -7.5 Q250 -12 233 -12 L232 -12 Q172 -12 139 22 Q106 56 106 113 L106 379 L6 379 L6 435 L16 435 Q51 435 71 442 Q91 449 100.5 464 Q110 479 112 503 Q114 527 114 561 L114 571 L184 571 Q186 536 184.5 510.5 Q183 485 180 469 Q177 449 172 435 L307 435 L307 379 L185 379 Z " />
<glyph glyph-name="uni0166" unicode="&#x166;" horiz-adv-x="573" d="M552 564 L553 630 L20 630 L20 564 L245 564 L246 357 L99 357 L99 293 L246 293 L246 0 L326 0 L326 293 L473 293 L473 357 L326 357 L326 564 L552 564 Z " />
<glyph glyph-name="uni0167" unicode="&#x167;" horiz-adv-x="322" d="M307 379 L185 379 L185 279 L281 279 L281 222 L185 222 L185 108 Q185 80 198 65 Q212 51 237 51 Q250 51 263 54 Q276 57 285 61 L294 64 L300 1 L294 -1 Q286 -3 268 -7.5 Q250 -12 233 -12 L232 -12 Q171 -12 139 21.5 Q107 55 107 113 L107 222 L10 222 L10 279 L106 279 L106 379 L6 379 L6 435 L16 435 Q51 435 71 442 Q91 449 100.5 464 Q110 479 112 503 Q114 527 114 561 L114 571 L184 571 Q186 536 184.5 510.5 Q183 485 180 469 Q177 449 172 435 L307 435 L307 379 Z " />
<glyph glyph-name="uni0168" unicode="&#x168;" horiz-adv-x="602" d="M151 675 Q151 731 171.5 764.5 Q192 798 236 798 Q256 798 272.5 789 Q289 780 303.5 768.5 Q318 757 331.5 748 Q345 739 360 739 Q381 739 388.5 753.5 Q396 768 398 795 L450 795 Q450 739 429 705.5 Q408 672 365 672 Q344 672 327.5 681 Q311 690 296.5 701.5 Q282 713 268.5 722 Q255 731 240 731 Q219 731 211.5 716.5 Q204 702 202 675 L151 675 Z M549 630 L549 233 Q549 166 529.5 119.5 Q510 73 476.5 44 Q443 15 397.5 1.5 Q352 -12 300 -12 Q249 -12 204 1.5 Q159 15 125.5 44 Q92 73 72.5 119.5 Q53 166 53 233 L53 630 L134 630 L133 247 Q133 148 176 102.5 Q219 57 300 57 Q381 57 424.5 102.5 Q468 148 468 246 L468 630 L549 630 Z " />
<glyph glyph-name="uni0169" unicode="&#x169;" horiz-adv-x="489" d="M95 506 Q95 562 115.5 595.5 Q136 629 180 629 Q200 629 216.5 620 Q233 611 247.5 599.5 Q262 588 275.5 579 Q289 570 304 570 Q325 570 332.5 584.5 Q340 599 342 626 L394 626 Q394 570 373 536.5 Q352 503 309 503 Q288 503 271.5 512 Q255 521 240.5 532.5 Q226 544 212.5 553 Q199 562 184 562 Q163 562 155.5 547.5 Q148 533 146 506 L95 506 Z M219 -12 Q136 -12 95.5 36.5 Q55 85 55 162 L55 436 L134 436 L134 168 Q134 115 159.5 83.5 Q185 52 236 52 Q284 52 319.5 86 Q355 120 355 178 L355 436 L434 436 L434 0 L370 0 L355 78 Q340 39 301 13.5 Q262 -12 219 -12 Z " />
<glyph glyph-name="uni016A" unicode="&#x16a;" horiz-adv-x="602" d="M170 747 L432 747 L432 685 L170 685 L170 747 Z M549 630 L549 233 Q549 166 529.5 119.5 Q510 73 476.5 44 Q443 15 397.5 1.5 Q352 -12 300 -12 Q249 -12 204 1.5 Q159 15 125.5 44 Q92 73 72.5 119.5 Q53 166 53 233 L53 630 L134 630 L133 247 Q133 148 176 102.5 Q219 57 300 57 Q381 57 424.5 102.5 Q468 148 468 246 L468 630 L549 630 Z " />
<glyph glyph-name="uni016B" unicode="&#x16b;" horiz-adv-x="489" d="M113 578 L376 578 L376 515 L113 515 L113 578 Z M219 -12 Q136 -12 95.5 36.5 Q55 85 55 162 L55 436 L134 436 L134 168 Q134 115 159.5 83.5 Q185 52 236 52 Q284 52 319.5 86 Q355 120 355 178 L355 436 L434 436 L434 0 L370 0 L355 78 Q340 39 301 13.5 Q262 -12 219 -12 Z " />
<glyph glyph-name="uni016C" unicode="&#x16c;" horiz-adv-x="602" d="M363 804 L419 804 Q419 741 388.5 707 Q358 673 301 673 Q244 673 213.5 707 Q183 741 183 804 L239 804 Q239 769 253 749.5 Q267 730 301 730 Q335 730 349 749.5 Q363 769 363 804 Z M549 630 L549 233 Q549 166 529.5 119.5 Q510 73 476.5 44 Q443 15 397.5 1.5 Q352 -12 300 -12 Q249 -12 204 1.5 Q159 15 125.5 44 Q92 73 72.5 119.5 Q53 166 53 233 L53 630 L134 630 L133 247 Q133 148 176 102.5 Q219 57 300 57 Q381 57 424.5 102.5 Q468 148 468 246 L468 630 L549 630 Z " />
<glyph glyph-name="uni016D" unicode="&#x16d;" horiz-adv-x="489" d="M363 632 Q363 569 332.5 535 Q302 501 244 501 Q187 501 156.5 535 Q126 569 126 632 L183 632 Q183 597 197 577.5 Q211 558 244 558 Q278 558 292 577.5 Q306 597 306 632 L363 632 Z M219 -12 Q136 -12 95.5 36.5 Q55 85 55 162 L55 436 L134 436 L134 168 Q134 115 159.5 83.5 Q185 52 236 52 Q284 52 319.5 86 Q355 120 355 178 L355 436 L434 436 L434 0 L370 0 L355 78 Q340 39 301 13.5 Q262 -12 219 -12 Z " />
<glyph glyph-name="uni016E" unicode="&#x16e;" horiz-adv-x="602" d="M301 835 Q339 835 365 810 Q391 785 391 748 Q391 710 365 684.5 Q339 659 301 659 Q263 659 237 684.5 Q211 710 211 748 Q211 785 237 810 Q263 835 301 835 Z M349 748 Q349 770 335.5 784.5 Q322 799 301 799 Q280 799 266.5 784.5 Q253 770 253 748 Q253 725 266.5 710.5 Q280 696 301 696 Q322 696 335.5 710.5 Q349 725 349 748 Z M549 630 L549 233 Q549 166 529.5 119.5 Q510 73 476.5 44 Q443 15 397.5 1.5 Q352 -12 300 -12 Q249 -12 204 1.5 Q159 15 125.5 44 Q92 73 72.5 119.5 Q53 166 53 233 L53 630 L134 630 L133 247 Q133 148 176 102.5 Q219 57 300 57 Q381 57 424.5 102.5 Q468 148 468 246 L468 630 L549 630 Z " />
<glyph glyph-name="uni016F" unicode="&#x16f;" horiz-adv-x="489" d="M244 678 Q282 678 308.5 652.5 Q335 627 335 590 Q335 552 308.5 526.5 Q282 501 244 501 Q206 501 180 526.5 Q154 552 154 590 Q154 627 180 652.5 Q206 678 244 678 Z M293 590 Q293 613 279 627 Q265 641 244 641 Q223 641 209.5 627 Q196 613 196 590 Q196 567 209.5 552.5 Q223 538 244 538 Q265 538 279 552.5 Q293 567 293 590 Z M219 -12 Q136 -12 95.5 36.5 Q55 85 55 162 L55 436 L134 436 L134 168 Q134 115 159.5 83.5 Q185 52 236 52 Q284 52 319.5 86 Q355 120 355 178 L355 436 L434 436 L434 0 L370 0 L355 78 Q340 39 301 13.5 Q262 -12 219 -12 Z " />
<glyph glyph-name="uni0170" unicode="&#x170;" horiz-adv-x="602" d="M259 803 L357 803 L260 677 L205 677 L259 803 Z M395 803 L493 803 L396 677 L341 677 L395 803 Z M549 630 L549 233 Q549 166 529.5 119.5 Q510 73 476.5 44 Q443 15 397.5 1.5 Q352 -12 300 -12 Q249 -12 204 1.5 Q159 15 125.5 44 Q92 73 72.5 119.5 Q53 166 53 233 L53 630 L134 630 L133 247 Q133 148 176 102.5 Q219 57 300 57 Q381 57 424.5 102.5 Q468 148 468 246 L468 630 L549 630 Z " />
<glyph glyph-name="uni0171" unicode="&#x171;" horiz-adv-x="491" d="M299 630 L202 504 L147 504 L201 630 L299 630 Z M337 630 L436 630 L339 504 L283 504 L337 630 Z M219 -12 Q136 -12 95.5 36.5 Q55 85 55 162 L55 436 L134 436 L134 168 Q134 115 159.5 83.5 Q185 52 236 52 Q284 52 319.5 86 Q355 120 355 178 L355 436 L434 436 L434 0 L370 0 L355 78 Q340 39 301 13.5 Q262 -12 219 -12 Z " />
<glyph glyph-name="uni0172" unicode="&#x172;" horiz-adv-x="602" d="M468 630 L549 630 L549 234 Q549 128 503 71.5 Q457 15 384 -3 Q342 -39 324 -61 Q306 -83 306 -105 Q306 -135 342 -135 Q356 -135 369.5 -126.5 Q383 -118 395 -112 L395 -165 Q382 -173 364.5 -180 Q347 -187 320 -187 Q287 -187 265.5 -170 Q244 -153 244 -120 Q244 -88 266.5 -61.5 Q289 -35 320 -11 Q314 -12 301 -12 Q250 -12 204.5 1.5 Q159 15 125.5 44 Q92 73 72.5 120 Q53 167 53 234 L53 630 L134 630 L134 246 Q134 148 177 102.5 Q220 57 301 57 Q382 57 425 102.5 Q468 148 468 247 L468 630 Z " />
<glyph glyph-name="uni0173" unicode="&#x173;" horiz-adv-x="498" d="M405 -119 Q419 -119 432.5 -110.5 Q446 -102 458 -96 L458 -149 Q445 -157 427.5 -164 Q410 -171 383 -171 Q350 -171 328.5 -154 Q307 -137 307 -104 Q307 -73 328.5 -48 Q350 -23 379 0 L370 1 L355 80 Q340 41 301 15.5 Q262 -10 220 -10 Q137 -10 96 38 Q55 86 55 163 L55 437 L134 437 L134 170 Q134 116 159.5 84.5 Q185 53 236 53 Q284 53 319.5 87.5 Q355 122 355 180 L355 437 L434 437 L434 0 Q400 -30 384.5 -49.5 Q369 -69 369 -90 Q369 -103 377.5 -111 Q386 -119 405 -119 Z " />
<glyph glyph-name="uni0174" unicode="&#x174;" horiz-adv-x="807" d="M452 803 L532 677 L472 677 L404 751 L336 677 L276 677 L356 803 L452 803 Z M274 0 L401 559 L405 559 L533 0 L647 0 L795 630 L713 630 L587 79 L583 79 L457 630 L350 630 L224 79 L220 79 L94 630 L12 630 L160 0 L274 0 Z " />
<glyph glyph-name="uni0175" unicode="&#x175;" horiz-adv-x="618" d="M357 630 L437 504 L377 504 L309 578 L241 504 L181 504 L261 630 L357 630 Z M531 436 L444 77 L440 77 L354 436 L264 436 L177 77 L173 77 L87 436 L7 436 L132 0 L219 0 L307 359 L311 359 L399 0 L486 0 L611 436 L531 436 Z " />
<glyph glyph-name="uni0176" unicode="&#x176;" horiz-adv-x="566" d="M250 803 L170 677 L230 677 L298 751 L366 677 L426 677 L346 803 L250 803 Z M243 0 L323 0 L323 249 L554 630 L463 630 L283 317 L104 630 L12 630 L242 249 L243 0 Z " />
<glyph glyph-name="uni0177" unicode="&#x177;" horiz-adv-x="449" d="M272 630 L352 504 L292 504 L224 578 L156 504 L96 504 L176 630 L272 630 Z M442 436 L259 -33 Q244 -71 230 -101 Q216 -131 196 -151 Q176 -171 150.5 -178 Q125 -185 97 -185 Q84 -185 73 -183.5 Q62 -182 54 -180 Q45 -178 37 -176 L37 -110 Q43 -113 51 -116 Q58 -118 68 -119.5 Q78 -121 91 -121 Q112 -121 124 -116 Q136 -111 144.5 -100.5 Q153 -90 159.5 -73 Q166 -56 175 -32 L182 -14 L7 436 L89 436 L222 94 L226 94 L359 436 L442 436 Z " />
<glyph glyph-name="uni0178" unicode="&#x178;" horiz-adv-x="566" d="M175 778 L272 778 L272 681 L175 681 L175 778 Z M324 778 L421 778 L421 681 L324 681 L324 778 Z M243 0 L323 0 L323 249 L554 630 L463 630 L283 317 L104 630 L12 630 L242 249 L243 0 Z " />
<glyph glyph-name="uni0179" unicode="&#x179;" horiz-adv-x="565" d="M263 677 L317 803 L415 803 L318 677 L263 677 Z M119 66 L535 66 L535 0 L30 0 L30 76 L429 564 L33 564 L33 630 L526 630 L526 554 L119 66 Z " />
<glyph glyph-name="uni017A" unicode="&#x17a;" horiz-adv-x="409" d="M178 504 L232 630 L331 630 L234 504 L178 504 Z M122 63 L380 63 L380 0 L29 0 L29 54 L280 372 L32 372 L32 436 L373 436 L373 382 L122 63 Z " />
<glyph glyph-name="uni017B" unicode="&#x17b;" horiz-adv-x="565" d="M234 778 L331 778 L331 681 L234 681 L234 778 Z M119 66 L535 66 L535 0 L30 0 L30 76 L429 564 L33 564 L33 630 L526 630 L526 554 L119 66 Z " />
<glyph glyph-name="uni017C" unicode="&#x17c;" horiz-adv-x="409" d="M156 626 L253 626 L253 528 L156 528 L156 626 Z M122 64 L380 64 L380 0 L29 0 L29 54 L280 372 L32 372 L32 436 L373 436 L373 382 L122 64 Z " />
<glyph glyph-name="uni017D" unicode="&#x17d;" horiz-adv-x="565" d="M243 677 L163 803 L223 803 L291 729 L359 803 L419 803 L339 677 L243 677 Z M119 66 L535 66 L535 0 L30 0 L30 76 L429 564 L33 564 L33 630 L526 630 L526 554 L119 66 Z " />
<glyph glyph-name="uni017E" unicode="&#x17e;" horiz-adv-x="409" d="M154 504 L74 630 L134 630 L202 556 L270 630 L330 630 L250 504 L154 504 Z M122 63 L380 63 L380 0 L29 0 L29 54 L280 372 L32 372 L32 435 L373 435 L373 382 L122 63 Z " />
<glyph glyph-name="uni0192" unicode="&#x192;" horiz-adv-x="474" d="M462 623 L434 563 Q426 567 411.5 571 Q397 575 386 575 Q329 575 311 486 L290 381 L402 381 L401 320 L277 320 L221 40 Q210 -18 168.5 -56.5 Q127 -95 67 -95 Q33 -95 0 -80 L29 -19 Q49 -29 69 -29 Q104 -29 125 -2 Q146 25 152 57 L205 320 L117 320 L120 381 L217 381 L242 503 Q253 560 287.5 600.5 Q322 641 384 641 Q423 641 462 623 Z " />
<glyph glyph-name="uni01FA" unicode="&#x1fa;" horiz-adv-x="620" d="M310 819 Q348 819 374 795.5 Q400 772 400 737 Q400 702 374 678 Q348 654 310 654 Q272 654 246 678 Q220 702 220 737 Q220 772 246 795.5 Q272 819 310 819 Z M310 693 Q331 693 345 705.5 Q359 718 359 737 Q359 757 345 769 Q331 781 310 781 Q289 781 275.5 769 Q262 757 262 737 Q262 718 275.5 705.5 Q289 693 310 693 Z M412 936 L338 840 L283 840 L324 936 L412 936 Z M522 0 L453 184 L166 184 L97 0 L12 0 L262 630 L358 630 L608 0 L522 0 Z M192 251 L428 251 L312 560 L308 560 L192 251 Z " />
<glyph glyph-name="uni01FB" unicode="&#x1fb;" horiz-adv-x="453" d="M231 636 Q269 636 295.5 612.5 Q322 589 322 554 Q322 519 295.5 495.5 Q269 472 231 472 Q193 472 167 495.5 Q141 519 141 554 Q141 589 167 612.5 Q193 636 231 636 Z M231 510 Q253 510 266.5 522.5 Q280 535 280 555 Q280 574 266.5 586 Q253 598 231 598 Q211 598 197 586 Q183 574 183 555 Q183 535 197 522.5 Q211 510 231 510 Z M333 753 L259 657 L204 657 L245 753 L333 753 Z M438 47 L448 50 L448 -3 Q442 -6 435 -8 Q428 -9 420 -10.5 Q412 -12 403 -12 Q381 -12 366.5 -5 Q352 2 343 11.5 Q334 21 329 32 Q324 43 322 51 Q315 43 303 32 Q291 21 274 11.5 Q257 2 235 -5 Q213 -12 187 -12 Q149 -12 121 -1 Q93 10 74.5 28 Q56 46 47 68.5 Q38 91 38 114 Q38 156 54 181 Q70 206 95.5 221 Q121 236 152 243.5 Q183 251 213 256 Q256 264 287.5 274 Q319 284 319 315 Q319 347 297 365 Q275 383 235 383 Q191 383 167.5 359.5 Q144 336 136 295 L57 310 Q59 322 66 344.5 Q73 367 92.5 390 Q112 413 146.5 430 Q181 447 236 447 Q305 447 351.5 415 Q398 383 398 308 L398 73 Q398 44 421 44 Q428 44 438 47 Z M320 161 L320 230 Q302 222 272 214 Q242 206 223 201 Q207 197 188.5 192 Q170 187 154.5 178 Q139 169 129 155.5 Q119 142 119 121 Q119 84 143 69 Q167 54 200 54 Q249 54 284.5 81.5 Q320 109 320 161 Z " />
<glyph glyph-name="uni01FC" unicode="&#x1fc;" horiz-adv-x="946" d="M659 677 L562 803 L660 803 L714 677 L659 677 Z M547 66 L547 288 L855 288 L855 354 L547 354 L547 564 L897 564 L897 630 L448 630 L12 0 L108 0 L232 182 L466 182 L466 0 L908 0 L908 66 L547 66 Z M267 251 L462 525 L466 525 L466 251 L267 251 Z " />
<glyph glyph-name="uni01FD" unicode="&#x1fd;" horiz-adv-x="768" d="M357 504 L411 630 L509 630 L412 504 L357 504 Z M667 139 L739 123 Q717 54 662 21 Q607 -12 538 -12 Q428 -12 365 68 Q358 58 344.5 44.5 Q331 31 309 18.5 Q287 6 256.5 -3 Q226 -12 184 -12 Q146 -12 118 -1 Q90 10 71.5 28 Q53 46 44 68.5 Q35 91 35 114 Q35 156 51.5 182 Q68 208 93.5 223 Q119 238 150.5 245 Q182 252 212 257 Q254 265 285 275 Q316 285 316 315 Q316 347 294 365 Q272 383 232 383 Q188 383 164.5 359.5 Q141 336 133 295 L54 310 Q56 322 63 344.5 Q70 367 89.5 390 Q109 413 143.5 430 Q178 447 233 447 Q252 447 273 444 Q294 441 314 434 Q334 427 350.5 414.5 Q367 402 377 384 Q411 420 450.5 434 Q490 448 538 448 Q583 448 620 431.5 Q657 415 683.5 386 Q710 357 724.5 318.5 Q739 280 739 236 L739 194 L399 194 Q406 130 441.5 91 Q477 52 539 52 Q584 52 617.5 74 Q651 96 667 139 Z M401 248 L656 248 Q652 303 621 344 Q590 385 530 385 Q468 385 438 344.5 Q408 304 401 248 Z M317 161 L317 230 Q299 223 269 214.5 Q239 206 220 201 Q204 198 185.5 192.5 Q167 187 151.5 178 Q136 169 126 155.5 Q116 142 116 121 Q116 85 140 69.5 Q164 54 197 54 Q246 54 281.5 81.5 Q317 109 317 161 Z " />
<glyph glyph-name="uni01FE" unicode="&#x1fe;" horiz-adv-x="685" d="M315 679 L369 805 L467 805 L370 679 L315 679 Z M569 547 Q609 504 631.5 445 Q654 386 654 314 Q654 241 630 181 Q606 121 564 78 Q522 35 465.5 11.5 Q409 -12 343 -12 Q237 -12 158 47 L97 -27 L54 6 L117 82 Q77 125 54 183.5 Q31 242 31 314 Q31 388 55 448.5 Q79 509 121 552 Q163 595 220 618.5 Q277 642 343 642 Q448 642 529 583 L589 657 L631 624 L569 547 Z M118 315 Q118 210 166 142 L483 527 Q428 573 344 573 Q238 573 178 504 Q118 435 118 315 Z M344 57 Q448 57 507.5 126 Q567 195 567 315 Q567 421 520 488 L204 102 Q260 57 344 57 Z " />
<glyph glyph-name="uni01FF" unicode="&#x1ff;" horiz-adv-x="496" d="M219 504 L273 630 L371 630 L274 504 L219 504 Z M412 375 Q438 344 452.5 304 Q467 264 467 217 Q467 168 451 126.5 Q435 85 406.5 54 Q378 23 337.5 5.5 Q297 -12 248 -12 Q176 -12 124 25 L72 -38 L29 -4 L83 61 Q57 91 43 131 Q29 171 29 217 Q29 266 45 308 Q61 350 89.5 381 Q118 412 158.5 429.5 Q199 447 248 447 Q320 447 372 410 L423 473 L466 441 L412 375 Z M111 218 Q111 159 132 120 L329 358 Q295 384 248 384 Q184 384 147.5 339.5 Q111 295 111 218 Z M248 52 Q312 52 348.5 96.5 Q385 141 385 218 Q385 277 364 316 L167 78 Q201 52 248 52 Z " />
<glyph glyph-name="uni0218" unicode="&#x218;" horiz-adv-x="575" d="M338 -50 L338 -108 Q338 -153 321.5 -175 Q305 -197 258 -197 L258 -160 Q284 -160 294 -148 Q303 -137 302 -115 L258 -115 L258 -50 L338 -50 Z M360 346 Q403 338 436.5 326 Q470 314 493 293.5 Q516 273 528 242.5 Q540 212 540 167 Q540 84 475 36 Q410 -12 297 -12 Q250 -12 204 0 Q158 12 120 36.5 Q82 61 56 98 Q30 135 22 186 L95 203 Q100 175 116 148 Q132 121 159 100 Q186 79 222 66.5 Q258 54 303 54 Q373 54 417.5 86 Q462 118 462 163 Q462 208 431.5 233 Q401 258 334 270 L209 293 Q124 309 82 352 Q40 395 40 461 Q40 546 105.5 594 Q171 642 280 642 Q324 642 363 633 Q402 624 434 604 Q466 584 489.5 551.5 Q513 519 524 472 L451 455 Q437 518 393.5 547 Q350 576 274 576 Q201 576 159.5 546 Q118 516 118 466 Q118 440 132.5 422.5 Q147 405 167.5 394 Q188 383 209.5 377 Q231 371 246 368 L360 346 Z " />
<glyph glyph-name="uni0219" unicode="&#x219;" horiz-adv-x="425" d="M252 -51 L252 -110 Q252 -155 235.5 -177 Q219 -199 172 -199 L172 -162 Q198 -162 208 -150 Q217 -139 216 -117 L172 -117 L172 -51 L252 -51 Z M267 247 Q327 235 361.5 209 Q396 183 396 118 Q396 84 381.5 59 Q367 34 343 18.5 Q319 3 288 -4.5 Q257 -12 223 -12 Q187 -12 154.5 -3 Q122 6 96 24 Q70 42 52.5 68.5 Q35 95 29 129 L95 143 Q104 97 143 72 Q182 47 227 47 Q261 47 292.5 64 Q324 81 325 115 Q325 146 304.5 159 Q284 172 247 179 L162 195 Q109 205 75 234 Q41 263 41 317 Q41 353 56.5 377.5 Q72 402 96 417.5 Q120 433 150.5 440 Q181 447 212 447 Q356 447 385 326 L319 311 Q302 388 208 388 Q192 388 175 384.5 Q158 381 144 373 Q130 365 121 352 Q112 339 112 320 Q112 278 190 261 L267 247 Z " />
<glyph glyph-name="uni0237" unicode="&#x237;" horiz-adv-x="189" d="M134 -59 Q134 -119 99.5 -151.5 Q65 -184 8 -184 L7 -184 Q-10 -184 -28 -179.5 Q-46 -175 -54 -173 L-60 -171 L-54 -108 L-45 -111 Q-36 -115 -23 -118 Q-10 -121 3 -121 Q28 -121 42 -107 Q55 -92 55 -64 L54 436 L134 436 L134 -59 Z " />
<glyph glyph-name="uni02C6" unicode="&#x2c6;" horiz-adv-x="518" d="M307 634 L387 508 L327 508 L259 582 L191 508 L131 508 L211 634 L307 634 Z " />
<glyph glyph-name="uni02C7" unicode="&#x2c7;" horiz-adv-x="518" d="M211 508 L131 634 L191 634 L259 560 L327 634 L387 634 L307 508 L211 508 Z " />
<glyph glyph-name="uni02D8" unicode="&#x2d8;" horiz-adv-x="518" d="M321 635 L377 635 Q377 572 346.5 538.5 Q316 505 259 505 Q202 505 171.5 538.5 Q141 572 141 635 L198 635 Q198 600 212 580.5 Q226 561 259 561 Q293 561 307 580.5 Q321 600 321 635 Z " />
<glyph glyph-name="uni02D9" unicode="&#x2d9;" horiz-adv-x="533" d="M218 636 L315 636 L315 542 L218 542 L218 636 Z " />
<glyph glyph-name="uni02DA" unicode="&#x2da;" horiz-adv-x="502" d="M251 653 Q290 653 313.5 629 Q337 605 337 571 Q337 536 313.5 512 Q290 488 251 488 Q212 488 188.5 512 Q165 536 165 571 Q165 605 188.5 629 Q212 653 251 653 Z M251 520 Q274 520 286.5 534 Q299 548 299 571 Q299 592 286.5 606 Q274 620 251 620 Q228 620 216 606 Q204 592 204 571 Q204 548 216 534 Q228 520 251 520 Z " />
<glyph glyph-name="uni02DB" unicode="&#x2db;" horiz-adv-x="507" d="M321 12 Q278 -26 259 -48 Q240 -70 240 -93 Q240 -123 276 -123 Q290 -123 303.5 -114 Q317 -105 329 -99 L329 -153 Q316 -161 298.5 -168 Q281 -175 254 -175 Q221 -175 199.5 -158 Q178 -141 178 -108 Q178 -72 206 -43 Q234 -14 269 12 L321 12 Z " />
<glyph glyph-name="uni02DC" unicode="&#x2dc;" horiz-adv-x="509" d="M105 507 Q105 563 125.5 596.5 Q146 630 190 630 Q210 630 226.5 621 Q243 612 257.5 600.5 Q272 589 285.5 580 Q299 571 314 571 Q335 571 342.5 585.5 Q350 600 352 627 L404 627 Q404 571 383 537.5 Q362 504 319 504 Q298 504 281.5 513 Q265 522 250.5 533.5 Q236 545 222.5 554 Q209 563 194 563 Q173 563 165.5 548.5 Q158 534 156 507 L105 507 Z " />
<glyph glyph-name="uni02DD" unicode="&#x2dd;" horiz-adv-x="535" d="M123 504 L177 630 L275 630 L178 504 L123 504 Z M260 504 L314 630 L412 630 L315 504 L260 504 Z " />
<glyph glyph-name="uni1E80" unicode="&#x1e80;" horiz-adv-x="807" d="M387 677 L290 803 L388 803 L442 677 L387 677 Z M274 0 L401 559 L405 559 L533 0 L647 0 L795 630 L713 630 L587 79 L583 79 L457 630 L350 630 L224 79 L220 79 L94 630 L12 630 L160 0 L274 0 Z " />
<glyph glyph-name="uni1E81" unicode="&#x1e81;" horiz-adv-x="618" d="M291 504 L194 630 L292 630 L346 504 L291 504 Z M531 436 L444 77 L440 77 L354 436 L264 436 L177 77 L173 77 L87 436 L7 436 L132 0 L219 0 L307 359 L311 359 L399 0 L486 0 L611 436 L531 436 Z " />
<glyph glyph-name="uni1E82" unicode="&#x1e82;" horiz-adv-x="807" d="M374 677 L428 803 L526 803 L429 677 L374 677 Z M274 0 L401 559 L405 559 L533 0 L647 0 L795 630 L713 630 L587 79 L583 79 L457 630 L350 630 L224 79 L220 79 L94 630 L12 630 L160 0 L274 0 Z " />
<glyph glyph-name="uni1E83" unicode="&#x1e83;" horiz-adv-x="618" d="M279 504 L333 630 L431 630 L334 504 L279 504 Z M531 436 L444 77 L440 77 L354 436 L264 436 L177 77 L173 77 L87 436 L7 436 L132 0 L219 0 L307 359 L311 359 L399 0 L486 0 L611 436 L531 436 Z " />
<glyph glyph-name="uni1E84" unicode="&#x1e84;" horiz-adv-x="807" d="M281 681 L378 681 L378 779 L281 779 L281 681 Z M429 681 L526 681 L526 779 L429 779 L429 681 Z M274 0 L401 559 L405 559 L533 0 L647 0 L795 630 L713 630 L587 79 L583 79 L457 630 L350 630 L224 79 L220 79 L94 630 L12 630 L160 0 L274 0 Z " />
<glyph glyph-name="uni1E85" unicode="&#x1e85;" horiz-adv-x="618" d="M186 528 L283 528 L283 625 L186 625 L186 528 Z M335 528 L432 528 L432 625 L335 625 L335 528 Z M531 436 L444 77 L440 77 L354 436 L264 436 L177 77 L173 77 L87 436 L7 436 L132 0 L219 0 L307 359 L311 359 L399 0 L486 0 L611 436 L531 436 Z " />
<glyph glyph-name="uni1EF2" unicode="&#x1ef2;" horiz-adv-x="572" d="M339 677 L285 803 L187 803 L284 677 L339 677 Z M246 0 L326 0 L326 249 L557 630 L466 630 L286 317 L107 630 L15 630 L245 249 L246 0 Z " />
<glyph glyph-name="uni1EF3" unicode="&#x1ef3;" horiz-adv-x="449" d="M199 504 L102 630 L200 630 L254 504 L199 504 Z M442 436 L259 -33 Q244 -71 230 -101 Q216 -131 196 -151 Q176 -171 150.5 -178 Q125 -185 97 -185 Q84 -185 73 -183.5 Q62 -182 54 -180 Q45 -178 37 -176 L37 -110 Q43 -113 51 -116 Q58 -118 68 -119.5 Q78 -121 91 -121 Q112 -121 124 -116 Q136 -111 144.5 -100.5 Q153 -90 159.5 -73 Q166 -56 175 -32 L182 -14 L7 436 L89 436 L222 94 L226 94 L359 436 L442 436 Z " />
<glyph glyph-name="uni2013" unicode="&#x2013;" horiz-adv-x="512" d="M60 284 L452 284 L452 222 L60 222 L60 284 Z " />
<glyph glyph-name="uni2014" unicode="&#x2014;" horiz-adv-x="1006" d="M60 284 L946 284 L946 222 L60 222 L60 284 Z " />
<glyph glyph-name="uni2018" unicode="&#x2018;" horiz-adv-x="177" d="M137 448 L40 448 L40 537 Q40 591 60 618 Q80 645 137 645 L137 601 Q107 599 95 587 Q83 575 83 545 L137 545 L137 448 Z " />
<glyph glyph-name="uni2019" unicode="&#x2019;" horiz-adv-x="177" d="M40 630 L137 630 L137 541 Q137 487 117 460 Q97 433 40 433 L40 478 Q71 478 84 492 Q94 505 94 533 L40 533 L40 630 Z " />
<glyph glyph-name="uni201A" unicode="&#x201a;" horiz-adv-x="177" d="M40 98 L137 98 L137 9 Q137 -46 117.5 -72.5 Q98 -99 40 -99 L40 -55 Q70 -53 82 -41.5 Q94 -30 94 0 L40 0 L40 98 Z " />
<glyph glyph-name="uni201C" unicode="&#x201c;" horiz-adv-x="316" d="M179 448 L179 537 Q179 584 196.5 615 Q214 646 266 646 Q272 646 276 645 L276 601 Q246 599 234 587.5 Q222 576 222 546 L276 546 L276 448 L179 448 Z M137 448 L40 448 L40 537 Q40 601 67 625 Q88 646 127 646 Q134 646 137 645 L137 601 Q105 599 94 586 Q83 575 83 546 L137 546 L137 448 Z " />
<glyph glyph-name="uni201D" unicode="&#x201d;" horiz-adv-x="316" d="M137 630 L137 541 Q137 487 117 460 Q97 433 40 433 L40 478 Q71 478 84 492 Q94 505 94 533 L40 533 L40 630 L137 630 Z M179 630 L276 630 L276 541 Q276 487 256 460 Q236 433 179 433 L179 478 Q209 478 221 491 Q233 504 233 533 L179 533 L179 630 Z " />
<glyph glyph-name="uni201E" unicode="&#x201e;" horiz-adv-x="316" d="M137 97 L137 8 Q137 -46 117.5 -73 Q98 -100 40 -100 L40 -55 Q72 -55 83 -43 Q94 -31 94 0 L40 0 L40 97 L137 97 Z M179 97 L276 97 L276 8 Q276 -46 256 -73 Q236 -100 179 -100 L179 -55 Q209 -55 221 -42 Q233 -29 233 0 L179 0 L179 97 Z " />
<glyph glyph-name="uni2020" unicode="&#x2020;" horiz-adv-x="281" d="M261 483 L261 526 L164 526 L164 630 L117 630 L117 526 L20 526 L20 483 L117 483 L117 239 L164 239 L164 483 L261 483 Z " />
<glyph glyph-name="uni2021" unicode="&#x2021;" horiz-adv-x="291" d="M266 483 L266 526 L169 526 L169 630 L122 630 L122 526 L25 526 L25 483 L122 483 L122 385 L25 385 L25 342 L122 342 L122 239 L169 239 L169 342 L266 342 L266 385 L169 385 L169 483 L266 483 Z " />
<glyph glyph-name="uni2022" unicode="&#x2022;" horiz-adv-x="341" d="M169 143 Q119 143 84.5 176.5 Q50 210 50 264 Q50 316 84.5 350 Q119 384 169 384 Q220 384 255.5 350 Q291 316 291 264 Q291 210 255.5 176.5 Q220 143 169 143 Z " />
<glyph glyph-name="uni2026" unicode="&#x2026;" horiz-adv-x="519" d="M40 97 L137 97 L137 0 L40 0 L40 97 Z M211 97 L309 97 L309 0 L211 0 L211 97 Z M382 97 L479 97 L479 0 L382 0 L382 97 Z " />
<glyph glyph-name="uni2030" unicode="&#x2030;" horiz-adv-x="1113" d="M510 631 L579 631 L249 0 L179 0 L510 631 Z M346 472 Q346 397 302 349.5 Q258 302 187 302 Q118 302 74 349.5 Q30 397 30 472 Q30 547 74 594.5 Q118 642 187 642 Q258 642 302 594.5 Q346 547 346 472 Z M187 596 Q100 596 100 472 Q100 348 187 348 Q276 348 276 472 Q276 596 187 596 Z M573 327 Q644 327 688 279.5 Q732 232 732 157 Q732 82 688 35 Q644 -12 573 -12 Q504 -12 460 35 Q416 82 416 157 Q416 232 460 279.5 Q504 327 573 327 Z M573 281 Q486 281 486 157 Q486 33 573 33 Q662 33 662 157 Q662 281 573 281 Z M924 327 Q995 327 1039 279.5 Q1083 232 1083 157 Q1083 82 1039 35 Q995 -12 924 -12 Q855 -12 811 35 Q767 82 767 157 Q767 232 811 279.5 Q855 327 924 327 Z M924 281 Q837 281 837 157 Q837 33 924 33 Q1013 33 1013 157 Q1013 281 924 281 Z " />
<glyph glyph-name="uni2039" unicode="&#x2039;" horiz-adv-x="238" d="M188 358 L188 271 L108 202 L188 126 L188 48 L50 173 L50 233 L188 358 Z " />
<glyph glyph-name="uni203A" unicode="&#x203a;" horiz-adv-x="238" d="M50 358 L50 271 L130 202 L50 126 L50 48 L188 173 L188 233 L50 358 Z " />
<glyph glyph-name="uni2044" unicode="&#x2044;" horiz-adv-x="487" d="M10 0 L404 630 L480 630 L87 0 L10 0 Z " />
<glyph glyph-name="uni20AC" unicode="&#x20ac;" horiz-adv-x="665" d="M560 255 L641 255 Q627 126 560 57 Q493 -12 373 -12 Q257 -12 187 52 Q117 116 100 237 L22 237 L22 285 L96 285 Q95 293 95 300 Q95 307 95 315 Q95 321 95 327.5 Q95 334 96 341 L22 341 L22 389 L100 389 Q117 510 186.5 576 Q256 642 373 642 Q493 642 560 572.5 Q627 503 641 375 L560 375 Q549 476 505 524.5 Q461 573 373 573 Q288 573 243.5 528 Q199 483 186 389 L390 389 L379 341 L182 341 L182 315 Q182 307 182 300 Q182 293 183 285 L367 285 L360 237 L187 237 Q201 145 245 101 Q289 57 373 57 Q461 57 505 105.5 Q549 154 560 255 Z " />
<glyph glyph-name="uni2117" unicode="&#x2117;" horiz-adv-x="724" d="M35 315 Q35 386 61 446 Q87 506 131 549.5 Q175 593 235 617.5 Q295 642 362 642 Q430 642 489.5 617.5 Q549 593 593 549.5 Q637 506 663 446 Q689 386 689 315 Q689 244 663 184 Q637 124 593 80.5 Q549 37 489.5 12.5 Q430 -12 362 -12 Q295 -12 235 12.5 Q175 37 131 80.5 Q87 124 61 184 Q35 244 35 315 Z M81 315 Q81 254 103 202 Q125 150 163.5 112.5 Q202 75 253 54 Q304 33 362 33 Q420 33 471 54 Q522 75 560.5 112.5 Q599 150 621 202 Q643 254 643 315 Q643 377 621 428.5 Q599 480 560.5 517.5 Q522 555 471 576 Q420 597 362 597 Q304 597 253 576 Q202 555 163.5 517.5 Q125 480 103 428.5 Q81 377 81 315 Z M515 380 Q515 323 478.5 292 Q442 261 387 261 L293 261 L293 127 L238 127 L238 501 L387 501 Q443 501 479 469.5 Q515 438 515 380 Z M459 381 Q459 416 441.5 435 Q424 454 389 454 L294 454 L293 308 L389 308 Q424 308 441.5 327 Q459 346 459 381 Z " />
<glyph glyph-name="uni2122" unicode="&#x2122;" horiz-adv-x="585" d="M528 630 L528 370 L482 370 L482 544 L421 370 L388 370 L325 545 L325 370 L279 370 L279 630 L337 630 L405 444 L469 630 L528 630 Z M20 591 L108 591 L108 370 L154 370 L154 591 L242 591 L242 630 L20 630 L20 591 Z " />
<glyph glyph-name="uni2153" unicode="&#x2153;" horiz-adv-x="761" d="M565 635 L159 0 L93 0 L500 635 L565 635 Z M673 201 Q690 192 710.5 169.5 Q731 147 731 109 Q731 75 718 52 Q705 29 683 15 Q661 1 633 -5 Q605 -11 576 -11 Q429 -11 429 133 L490 133 Q490 83 510.5 61 Q531 39 576 39 Q611 39 640.5 54 Q670 69 670 109 Q671 132 658.5 147 Q646 162 623 168 Q607 172 576 172 Q567 172 559.5 172 Q552 172 544 170 L544 228 Q559 225 576 225 Q609 225 633.5 236.5 Q658 248 658 287 Q658 322 633 336.5 Q608 351 576 351 Q549 351 533.5 343 Q518 335 510 322 Q502 309 500 292 Q498 275 498 257 L438 257 Q438 328 471 364.5 Q504 401 576 401 Q604 400 629.5 394 Q655 388 675 375 Q695 362 707 341 Q719 320 719 288 Q721 230 673 201 Z M173 636 L173 245 L113 245 L113 536 Q107 532 96 529 Q86 525 69 523 Q52 521 25 521 L25 581 Q46 581 63 581.5 Q80 582 93.5 586.5 Q107 591 117.5 602 Q128 613 135 635 L173 636 Z " />
<glyph glyph-name="uni2154" unicode="&#x2154;" horiz-adv-x="904" d="M705 635 L299 0 L233 0 L640 635 L705 635 Z M816 201 Q833 192 853.5 169.5 Q874 147 874 109 Q874 75 861 52 Q848 29 826 15 Q804 1 776 -5 Q748 -11 719 -11 Q572 -11 572 133 L633 133 Q633 83 653.5 61 Q674 39 719 39 Q754 39 783.5 54 Q813 69 813 109 Q814 132 801.5 147 Q789 162 766 168 Q750 172 719 172 Q710 172 702.5 172 Q695 172 687 170 L687 228 Q702 225 719 225 Q752 225 776.5 236.5 Q801 248 801 287 Q801 322 776 336.5 Q751 351 719 351 Q692 351 676.5 343 Q661 335 653 322 Q645 309 643 292 Q641 275 641 257 L581 257 Q581 328 614 364.5 Q647 401 719 401 Q747 400 772.5 394 Q798 388 818 375 Q838 362 850 341 Q862 320 862 288 Q864 230 816 201 Z M125 291 L317 291 L317 240 L30 240 L30 274 L143 372 Q185 410 214 442.5 Q243 475 243 517 Q243 554 223 573 Q203 592 167 592 Q134 592 111 566 Q97 550 91 527.5 Q85 505 90 482 L91 477 L37 477 L36 481 Q25 549 64 596 Q102 642 170 642 L171 642 Q229 642 266 611 Q303 580 303 520 Q303 467 269.5 425.5 Q236 384 193 347 L125 291 Z " />
<glyph glyph-name="uni215B" unicode="&#x215b;" horiz-adv-x="753" d="M567 635 L161 0 L95 0 L502 635 L567 635 Z M135 635 L173 636 L173 245 L113 245 L113 536 Q107 532 96 529 Q86 525 69 523 Q52 521 25 521 L25 581 Q46 581 63 581.5 Q80 582 93.5 586.5 Q107 591 117.5 602 Q128 613 135 635 Z M723 109 Q723 74 709.5 51 Q696 28 673.5 14 Q651 0 622.5 -6 Q594 -12 565 -12 Q535 -12 506.5 -5.5 Q478 1 456 15 Q434 29 420.5 52 Q407 75 407 109 Q407 120 409.5 129.5 Q412 139 416 147 Q427 167 434.5 175 Q442 183 461 195 Q466 197 469 199 Q472 201 476 203 Q449 217 434.5 241.5 Q420 266 420 296 Q420 327 432.5 349 Q445 371 465.5 384.5 Q486 398 512 404 Q538 410 565 410 Q594 410 620 404 Q646 398 666 384.5 Q686 371 698 349 Q710 327 710 296 Q710 266 697 241.5 Q684 217 655 205 Q659 203 662.5 201 Q666 199 671 197 Q695 183 709 160.5 Q723 138 723 109 Z M650 292 Q650 305 646 317.5 Q642 330 631 338 Q616 351 600.5 354.5 Q585 358 565 358 Q545 358 529.5 354.5 Q514 351 499 338 Q488 327 484 317 Q480 307 480 291 Q480 257 499 242 Q519 225 565 225 Q601 225 625.5 238 Q650 251 650 292 Z M467 108 Q467 87 476 73.5 Q485 60 499 52.5 Q513 45 530.5 42 Q548 39 566 39 Q584 39 601.5 42 Q619 45 632.5 52.5 Q646 60 654.5 73.5 Q663 87 663 109 Q663 126 658 136 Q654 148 643 157 Q627 169 606.5 172.5 Q586 176 566 176 Q548 176 530.5 173.5 Q513 171 498.5 163.5 Q484 156 475.5 142.5 Q467 129 467 108 Z " />
<glyph glyph-name="uni215C" unicode="&#x215c;" horiz-adv-x="859" d="M605 628 L671 628 L264 0 L198 0 L605 628 Z M274 442 Q291 433 311.5 410.5 Q332 388 332 350 Q332 316 319 293 Q306 270 284 256 Q262 242 234 236 Q206 230 177 230 Q30 230 30 374 L91 374 Q91 324 111.5 302 Q132 280 177 280 Q212 280 241.5 295 Q271 310 271 350 Q272 373 259.5 388 Q247 403 224 409 Q208 413 177 413 Q168 413 160.5 413 Q153 413 145 411 L145 469 Q160 466 177 466 Q210 466 234.5 477.5 Q259 489 259 528 Q259 563 234 577.5 Q209 592 177 592 Q150 592 134.5 584 Q119 576 111 563 Q103 550 101 533 Q99 516 99 498 L39 498 Q39 568 72 605 Q105 642 177 642 Q205 641 230.5 635.5 Q256 630 276 617 Q296 604 308 582.5 Q320 561 320 529 Q322 471 274 442 Z M829 109 Q829 74 815.5 51 Q802 28 779.5 14 Q757 0 728.5 -6 Q700 -12 671 -12 Q641 -12 612.5 -5.5 Q584 1 562 15 Q540 29 526.5 52 Q513 75 513 109 Q513 120 515.5 129.5 Q518 139 522 147 Q533 167 540.5 175 Q548 183 567 195 Q572 197 575 199 Q578 201 582 203 Q555 217 540.5 241.5 Q526 266 526 296 Q526 327 538.5 349 Q551 371 571.5 384.5 Q592 398 618 404 Q644 410 671 410 Q700 410 726 404 Q752 398 772 384.5 Q792 371 804 349 Q816 327 816 296 Q816 266 803 241.5 Q790 217 761 205 Q765 203 768.5 201 Q772 199 777 197 Q801 183 815 160.5 Q829 138 829 109 Z M756 292 Q756 305 752 317.5 Q748 330 737 338 Q722 351 706.5 354.5 Q691 358 671 358 Q651 358 635.5 354.5 Q620 351 605 338 Q594 327 590 317 Q586 307 586 291 Q586 257 605 242 Q625 225 671 225 Q707 225 731.5 238 Q756 251 756 292 Z M573 108 Q573 87 582 73.5 Q591 60 605 52.5 Q619 45 636.5 42 Q654 39 672 39 Q690 39 707.5 42 Q725 45 738.5 52.5 Q752 60 760.5 73.5 Q769 87 769 109 Q769 126 764 136 Q760 148 749 157 Q733 169 712.5 172.5 Q692 176 672 176 Q654 176 636.5 173.5 Q619 171 604.5 163.5 Q590 156 581.5 142.5 Q573 129 573 108 Z " />
<glyph glyph-name="uni215D" unicode="&#x215d;" horiz-adv-x="849" d="M595 628 L661 628 L254 0 L188 0 L595 628 Z M819 109 Q819 74 805.5 51 Q792 28 769.5 14 Q747 0 718.5 -6 Q690 -12 661 -12 Q631 -12 602.5 -5.5 Q574 1 552 15 Q530 29 516.5 52 Q503 75 503 109 Q503 131 512 147 Q530 187 572 203 Q545 217 530.5 241.5 Q516 266 516 296 Q516 327 528.5 349 Q541 371 561.5 384.5 Q582 398 608 404 Q634 410 661 410 Q690 410 716 404 Q742 398 762 384.5 Q782 371 794 349 Q806 327 806 296 Q806 266 793 241.5 Q780 217 751 205 Q755 203 759 201 Q763 199 767 197 Q791 184 805 160 Q819 136 819 109 Z M746 292 Q746 330 719.5 344 Q693 358 661 358 Q641 358 625.5 354.5 Q610 351 595 338 Q584 327 580 317 Q576 307 576 291 Q576 250 601 237.5 Q626 225 661 225 Q698 225 722 237.5 Q746 250 746 292 Z M563 108 Q563 87 572 73.5 Q581 60 595.5 52.5 Q610 45 627.5 42 Q645 39 662 39 Q680 39 697.5 42 Q715 45 728.5 52.5 Q742 60 750.5 73.5 Q759 87 759 109 Q759 130 750.5 143.5 Q742 157 728 164 Q714 171 697 173.5 Q680 176 662 176 Q644 176 626.5 173.5 Q609 171 595 163.5 Q581 156 572 142.5 Q563 129 563 108 Z M333 363 Q333 294 292 256.5 Q251 219 184 219 L183 219 Q131 221 101 238.5 Q71 256 56 279.5 Q41 303 36.5 328 Q32 353 30 370 L91 360 Q93 318 117 294 Q141 270 183 270 Q226 270 249 294.5 Q272 319 272 361 Q272 404 248 428 Q224 452 181 452 Q115 452 96 396 L34 408 L59 630 L309 630 L309 577 L113 577 L98 469 Q109 480 132.5 491.5 Q156 503 194 503 Q259 503 296 465.5 Q333 428 333 363 Z " />
<glyph glyph-name="uni215E" unicode="&#x215e;" horiz-adv-x="812" d="M558 628 L624 628 L217 0 L151 0 L558 628 Z M782 109 Q782 74 768.5 51 Q755 28 732.5 14 Q710 0 681.5 -6 Q653 -12 624 -12 Q594 -12 565.5 -5.5 Q537 1 515 15 Q493 29 479.5 52 Q466 75 466 109 Q466 131 475 147 Q493 187 535 203 Q508 217 493.5 241.5 Q479 266 479 296 Q479 327 491.5 349 Q504 371 524.5 384.5 Q545 398 571 404 Q597 410 624 410 Q653 410 679 404 Q705 398 725 384.5 Q745 371 757 349 Q769 327 769 296 Q769 266 756 241.5 Q743 217 714 205 Q718 203 722 201 Q726 199 730 197 Q754 184 768 160 Q782 136 782 109 Z M709 292 Q709 330 682.5 344 Q656 358 624 358 Q604 358 588.5 354.5 Q573 351 558 338 Q547 327 543 317 Q539 307 539 291 Q539 250 564 237.5 Q589 225 624 225 Q661 225 685 237.5 Q709 250 709 292 Z M526 108 Q526 87 535 73.5 Q544 60 558.5 52.5 Q573 45 590.5 42 Q608 39 625 39 Q643 39 660.5 42 Q678 45 691.5 52.5 Q705 60 713.5 73.5 Q722 87 722 109 Q722 130 713.5 143.5 Q705 157 691 164 Q677 171 660 173.5 Q643 176 625 176 Q607 176 589.5 173.5 Q572 171 558 163.5 Q544 156 535 142.5 Q526 129 526 108 Z M25 636 L319 636 L319 591 L317 589 Q254 525 224 443.5 Q194 362 192 254 L192 245 L133 245 L133 255 Q135 343 162 430 Q189 517 246 585 L25 585 L25 636 Z " />
<glyph glyph-name="uni2212" unicode="&#x2212;" horiz-adv-x="636" d="M57 342 L579 342 L579 280 L57 280 L57 342 Z " />
<glyph glyph-name="uni2248" unicode="&#x2248;" horiz-adv-x="608" d="M62 403 Q97 425 130 431.5 Q163 438 192 438 Q223 438 250 433 Q277 428 302.5 421.5 Q328 415 354.5 410 Q381 405 412 405 Q442 405 475.5 414 Q509 423 546 446 L546 373 Q509 350 475.5 344.5 Q442 339 412 339 Q381 339 354.5 344 Q328 349 302.5 355 Q277 361 250 366 Q223 371 192 371 Q163 371 130 362 Q97 353 62 331 L62 403 Z M62 274 Q97 296 130 302.5 Q163 309 192 309 Q223 309 250 304 Q277 299 302.5 292.5 Q328 286 354.5 281 Q381 276 412 276 Q442 276 475.5 285 Q509 294 546 317 L546 244 Q509 221 475.5 215.5 Q442 210 412 210 Q381 210 354.5 215 Q328 220 302.5 226 Q277 232 250 237 Q223 242 192 242 Q163 242 130 233 Q97 224 62 202 L62 274 Z " />
<glyph glyph-name="uni2260" unicode="&#x2260;" horiz-adv-x="624" d="M562 350 L562 416 L444 416 L528 528 L464 528 L379 416 L62 416 L62 350 L328 350 L245 240 L62 240 L62 174 L194 174 L109 63 L177 63 L261 174 L562 174 L562 240 L311 240 L394 350 L562 350 Z " />
<glyph glyph-name="uni2264" unicode="&#x2264;" horiz-adv-x="600" d="M495 221 L175 372 L495 515 L495 595 L105 411 L105 333 L495 143 L495 221 Z M105 100 L495 100 L495 38 L105 38 L105 100 Z " />
<glyph glyph-name="uni2265" unicode="&#x2265;" horiz-adv-x="462" d="M36 221 L356 372 L36 515 L36 595 L426 411 L426 333 L36 143 L36 221 Z M426 100 L36 100 L36 38 L426 38 L426 100 Z " />
<glyph glyph-name="uniFB00" unicode="&#xfb00;" horiz-adv-x="530" d="M403 492 L403 436 L521 436 L521 380 L403 380 L403 0 L324 0 L324 380 L167 380 L167 0 L88 0 L88 380 L7 380 L7 436 L88 436 L89 504 Q88 549 106.5 580 Q125 611 155 627 Q184 642 219 642 Q254 642 293 625 L277 564 Q269 568 260 571 Q252 573 243.5 575 Q235 577 227 577 Q219 577 208.5 574.5 Q198 572 188.5 563 Q179 554 173 537.5 Q167 521 167 492 L167 436 L324 436 L325 504 Q325 564 360 603 Q395 642 455 642 Q490 642 530 625 L513 564 Q505 568 496 571 Q489 573 480.5 575 Q472 577 464 577 Q455 577 444.5 574.5 Q434 572 424.5 563 Q415 554 409 537.5 Q403 521 403 492 Z " />
<glyph glyph-name="uniFB01" unicode="&#xfb01;" horiz-adv-x="500" d="M442 436 L442 0 L363 0 L363 436 L442 436 Z M359 596 L445 596 L445 514 L359 514 L359 596 Z M167 492 L167 436 L285 436 L285 380 L167 380 L167 0 L88 0 L88 380 L7 380 L7 436 L88 436 L90 504 Q89 549 107.5 580 Q126 611 155 627 Q184 642 220 642 Q255 642 294 625 L277 564 Q269 568 261 571 Q253 573 244.5 575 Q236 577 228 577 Q219 577 208.5 574.5 Q198 572 189 563 Q180 554 173.5 537.5 Q167 521 167 492 Z " />
<glyph glyph-name="uniFB02" unicode="&#xfb02;" horiz-adv-x="511" d="M450 630 L451 0 L372 0 L372 630 L450 630 Z M176 497 L176 436 L294 436 L294 373 L176 373 L176 0 L97 0 L97 373 L16 373 L16 436 L97 436 L98 509 Q97 554 115.5 585 Q134 616 164 632 Q193 647 228 647 Q245 647 264 643 Q283 639 302 630 L286 569 Q278 573 269 576 Q261 578 252.5 580 Q244 582 236 582 Q228 582 217.5 579.5 Q207 577 197.5 568.5 Q188 560 182 543 Q176 526 176 497 Z " />
<glyph glyph-name="uniFB03" unicode="&#xfb03;" horiz-adv-x="694" d="M636 436 L636 0 L557 0 L557 380 L403 380 L403 0 L324 0 L324 380 L167 380 L167 0 L88 0 L88 380 L7 380 L7 436 L88 436 L89 504 Q89 570 126 606 Q163 642 228 642 Q258 641 294 625 L277 564 Q269 568 260 571 Q253 573 244.5 575 Q236 577 228 577 Q219 577 208.5 574.5 Q198 572 188.5 563 Q179 554 173 537.5 Q167 521 167 492 L167 436 L324 436 L326 504 Q325 549 343 580 Q361 611 391 627 Q420 642 455 642 Q490 642 530 625 L513 564 Q505 568 497 571 Q489 573 480.5 575 Q472 577 464 577 Q455 577 444.5 574.5 Q434 572 425 563 Q416 554 409.5 537.5 Q403 521 403 492 L403 436 L636 436 Z M554 596 L639 596 L639 514 L554 514 L554 596 Z " />
<glyph glyph-name="uniFB04" unicode="&#xfb04;" horiz-adv-x="721" d="M665 630 L666 0 L586 0 L586 630 L665 630 Z M403 492 L403 436 L521 436 L521 380 L403 380 L403 0 L324 0 L324 380 L167 380 L167 0 L88 0 L88 380 L7 380 L7 436 L88 436 L89 504 Q88 549 106.5 580 Q125 611 155 627 Q184 642 219 642 Q254 642 293 625 L277 564 Q269 568 260 571 Q252 573 243.5 575 Q235 577 227 577 Q219 577 208.5 574.5 Q198 572 188.5 563 Q179 554 173 537.5 Q167 521 167 492 L167 436 L324 436 L325 504 Q325 564 360 603 Q395 642 455 642 Q490 642 530 625 L513 564 Q505 568 496 571 Q489 573 480.5 575 Q472 577 464 577 Q455 577 444.5 574.5 Q434 572 424.5 563 Q415 554 409 537.5 Q403 521 403 492 Z " />
<glyph glyph-name="uni2190" unicode="&#x2190;" horiz-adv-x="859" d="M166 357 Q163 355 163.5 352.5 Q164 350 167 350 L829 350 L829 280 L167 280 Q164 280 163.5 277.5 Q163 275 166 273 Q227 249 285 219 Q343 189 389 161 Q443 130 491 97 L392 10 Q352 67 295 121 Q238 175 186 219 Q125 269 60 315 Q126 362 188 414 Q224 443 249 465.5 Q274 488 299.5 513 Q325 538 349 565.5 Q373 593 392 620 L491 533 Q443 500 390 468 Q341 439 284.5 409.5 Q228 380 166 357 Z " />
<glyph glyph-name="uni2191" unicode="&#x2191;" horiz-adv-x="670" d="M293 594 Q269 532 239 473.5 Q209 415 181 369 Q150 316 117 268 L30 367 Q84 406 138.5 462.5 Q193 519 236.5 571.5 Q280 624 307.5 662 Q335 700 335 700 Q381 635 431 574 Q460 538 482.5 513 Q505 488 530.5 462.5 Q556 437 584 412 Q612 387 640 367 L553 268 Q520 317 489 371 Q459 420 429.5 476.5 Q400 533 376 594 L370 -70 L300 -70 L300 593 L293 594 Z " />
<glyph glyph-name="uni2192" unicode="&#x2192;" horiz-adv-x="859" d="M724 357 Q662 380 603.5 410.5 Q545 441 499 468 Q446 500 398 533 L497 620 Q536 566 592.5 511.5 Q649 457 702 414 Q763 362 829 315 Q764 269 703 219 Q667 190 642.5 167.5 Q618 145 592 119.5 Q566 94 541.5 66 Q517 38 497 10 L398 97 Q447 130 501 161 Q550 191 606.5 220 Q663 249 724 273 Q726 275 725.5 277.5 Q725 280 723 280 L60 280 L60 350 L723 350 Q725 350 725.5 352.5 Q726 355 724 357 Z " />
<glyph glyph-name="uni2193" unicode="&#x2193;" horiz-adv-x="670" d="M293 36 L300 700 L370 700 L370 37 Q396 97 428 155 Q460 213 488 259 Q520 313 553 361 L640 262 Q583 222 529 165.5 Q475 109 431 56 Q381 -5 335 -70 Q288 -4 237 58 Q207 94 184.5 119 Q162 144 137 169.5 Q112 195 84.5 219 Q57 243 30 262 L117 361 Q150 314 181 260 Q211 212 240 155 Q269 98 293 36 Z " />
</font>
</svg>
